Скачать через торрент музыку Mark Turner - In This World - 1998, FLAC бесплатно без регистрации torrent

Если у вас наблюдаются проблемы со скриншотами, переходом по ссылками, скачиванием торрентов - проблемы в блокировщике рекламы AdBlock. #хорошегоДня!


Статистика раздачи
Размер:  370 MB   |    Зарегистрирован:  5 лет 8 месяцев   |    .torrent скачан:  24 раза   |   
Раздают:  1  
   
Загрузка...
 
Автор Сообщение

Umakiro

avatar Umakiro


Mark Turner / In This World

Жанр: Post-Bop, Saxophone Jazz
Страна-производитель диска: USA
Год издания диска: 1998
Издатель (лейбл): Warner Bros.
Номер по каталогу: 47074
Страна: USA Fairborn, OH
Аудиокодек: FLAC (*.flac)
Тип рипа: tracks+.cue
Битрейт аудио: lossless
Продолжительность: 00:59:11
Источник (релизер): anonymous
Наличие сканов в содержимом раздачи: нет
Треклист:
01. Mesa [07:33]
02. Lennie Groove [07:18]
03. You Know I Care [07:59]
04. The Long Road [06:47]
05. Barcelona [06:45]
06. Barcelona [06:45]
07. Days Of Wine And Roses [05:02]
08. Bo Brussels [04:45]
09. She Said, She Said [06:13]
 
Exact Audio Copy V0.99 prebeta 4 from 23. January 2008

EAC extraction logfile from 15. September 2008, 19:12

Mark Turner / In This World

Used drive : LITE-ON DVDRW LH-18A1P Adapter: 3 ID: 1

Read mode : SecureUtilize accurate stream : YesDefeat audio cache : YesMake use of C2 pointers : No

Read offset correction : 6Overread into Lead-In and Lead-Out : NoFill up missing offset samples with silence : YesDelete leading and trailing silent blocks : NoNull samples used in CRC calculations : YesUsed interface : Installed external ASPI interfaceGap handling : Appended to previous track

Used output format : User Defined EncoderSelected bitrate : 128 kBit/sQuality : HighAdd ID3 tag : NoCommand line compressor : C:\Program Files\Exact Audio Copy\Flac\flac.exeAdditional command line options : -V -8 -T "artist=%a" -T "title=%t" -T "album=%g" -T "date=%y" -T "tracknumber=%n" -T "genre=%m" %s

TOC of the extracted CD

Track | Start | Length | Start sector | End sector --------------------------------------------------------- 1 | 0:00.32 | 7:33.50 | 32 | 34056 2 | 7:34.07 | 7:18.03 | 34057 | 66909 3 | 14:52.10 | 8:02.02 | 66910 | 103061 4 | 22:54.12 | 6:48.18 | 103062 | 133679 5 | 29:42.30 | 6:45.70 | 133680 | 164124 6 | 36:28.25 | 7:56.60 | 164125 | 199884 7 | 44:25.10 | 5:02.00 | 199885 | 222534 8 | 49:27.10 | 4:45.70 | 222535 | 243979 9 | 54:13.05 | 6:13.10 | 243980 | 271964

Track 1

Filename C:\Documents and Settings\John\My Documents\EAC Rips\Mark Turner - In This World (FLAC)\01 - Mesa.wav

Pre-gap length 0:00:02.42

Peak level 99.8 % Track quality 100.0 % Test CRC BB87C2CF Copy CRC BB87C2CF Track not present in AccurateRip database Copy OK

Track 2

Filename C:\Documents and Settings\John\My Documents\EAC Rips\Mark Turner - In This World (FLAC)\02 - Lennie Groove.wav

Peak level 99.8 % Track quality 100.0 % Test CRC 7268F726 Copy CRC 7268F726 Track not present in AccurateRip database Copy OK

Track 3

Filename C:\Documents and Settings\John\My Documents\EAC Rips\Mark Turner - In This World (FLAC)\03 - You Know I Care.wav

Peak level 99.8 % Track quality 100.0 % Test CRC EDEAE63D Copy CRC EDEAE63D Track not present in AccurateRip database Copy OK

Track 4

Filename C:\Documents and Settings\John\My Documents\EAC Rips\Mark Turner - In This World (FLAC)\04 - The Long Road.wav

Pre-gap length 0:00:02.73

Peak level 99.8 % Track quality 100.0 % Test CRC 97C0578D Copy CRC 97C0578D Track not present in AccurateRip database Copy OK

Track 5

Filename C:\Documents and Settings\John\My Documents\EAC Rips\Mark Turner - In This World (FLAC)\05 - Barcelona.wav

Pre-gap length 0:00:00.66

Peak level 99.8 % Track quality 100.0 % Test CRC CE26C26C Copy CRC CE26C26C Track not present in AccurateRip database Copy OK

Track 6

Filename C:\Documents and Settings\John\My Documents\EAC Rips\Mark Turner - In This World (FLAC)\06 - In This World.wav

Peak level 99.8 % Track quality 100.0 % Test CRC 0B69823C Copy CRC 0B69823C Track not present in AccurateRip database Copy OK

Track 7

Filename C:\Documents and Settings\John\My Documents\EAC Rips\Mark Turner - In This World (FLAC)\07 - Days Of Wine And Roses.wav

Peak level 99.8 % Track quality 100.0 % Test CRC FF8727B4 Copy CRC FF8727B4 Track not present in AccurateRip database Copy OK

Track 8

Filename C:\Documents and Settings\John\My Documents\EAC Rips\Mark Turner - In This World (FLAC)\08 - Bo Brussels.wav

Peak level 99.8 % Track quality 100.0 % Test CRC 5E6284A6 Copy CRC 5E6284A6 Track not present in AccurateRip database Copy OK

Track 9

Filename C:\Documents and Settings\John\My Documents\EAC Rips\Mark Turner - In This World (FLAC)\09 - She Said, She Said.wav

Pre-gap length 0:00:00.26

Peak level 99.8 % Track quality 100.0 % Test CRC DBB9BA3C Copy CRC DBB9BA3C Track not present in AccurateRip database Copy OK

None of the tracks are present in the AccurateRip database

No errors occurred

End of status report
 
REM GENRE JazzREM DATE 1998REM DISCID 950E2A09REM COMMENT "ExactAudioCopy v0.99pb4"PERFORMER "Mark Turner"TITLE "In This World"FILE "01 - Mesa.wav" WAVE TRACK 01 AUDIO TITLE "Mesa" PERFORMER "Mark Turner" PREGAP 00:00:32 INDEX 01 00:00:00FILE "02 - Lennie Groove.wav" WAVE TRACK 02 AUDIO TITLE "Lennie Groove" PERFORMER "Mark Turner" INDEX 01 00:00:00FILE "03 - You Know I Care.wav" WAVE TRACK 03 AUDIO TITLE "You Know I Care" PERFORMER "Mark Turner" INDEX 01 00:00:00 TRACK 04 AUDIO TITLE "The Long Road" PERFORMER "Mark Turner" INDEX 00 07:59:22FILE "04 - The Long Road.wav" WAVE INDEX 01 00:00:00 TRACK 05 AUDIO TITLE "Barcelona" PERFORMER "Mark Turner" INDEX 00 06:47:43FILE "05 - Barcelona.wav" WAVE INDEX 01 00:00:00FILE "6 - In This World.wav" WAVE TRACK 06 AUDIO TITLE "In This World" PERFORMER "Mark Turner" INDEX 01 00:00:00FILE "07 - Days Of Wine And Roses.wav" WAVE TRACK 07 AUDIO TITLE "Days Of Wine And Roses" PERFORMER "Mark Turner" INDEX 01 00:00:00FILE "08 - Bo Brussels.wav" WAVE TRACK 08 AUDIO TITLE "Bo Brussels" PERFORMER "Mark Turner" INDEX 01 00:00:00 TRACK 09 AUDIO TITLE "She Said, She Said" PERFORMER "Mark Turner" INDEX 00 04:45:50FILE "09 - She Said, She Said.wav" WAVE INDEX 01 00:00:00
 
-----------------------

DON'T MODIFY THIS FILE

-----------------------

PERFORMER: auCDtect Task Manager, ver. 1.5.1RC6 build 1.5.1.7Copyright (c) 2008-2010 y-soft. All rights reservedhttp://y-soft.org

ANALYZER: auCDtect: CD records authenticity detector, version 0.8.2Copyright (c) 2004 Oleg Berngardt. All rights reserved.Copyright (c) 2004 Alexander Djourik. All rights reserved.

FILE: 09 - She Said, She Said.flac Size: 42907306 Hash: 73AE76E01B4C76D9FA23137D787AD711 Accuracy: -m0 Conclusion: CDDA 100% Signature: F1916FFF0946AB76697B365938955AF519CD0B50FILE: 08 - Bo Brussels.flac Size: 35046309 Hash: 7BDE4D9133EFF9CE34CBBF900B783B18 Accuracy: -m0 Conclusion: CDDA 100% Signature: 9127FB1629774D8C7EDB6C12A08B4E76DD3F8688FILE: 07 - Days Of Wine And Roses.flac Size: 33063471 Hash: 693D060AA645303BCF79BC448FE5446E Accuracy: -m0 Conclusion: CDDA 100% Signature: 10144209F2548E5DF0318FF5DB3256B09407A260FILE: 06 - In This World.flac Size: 49902082 Hash: C0B81314FAAFA9C7783B2791F4242E6A Accuracy: -m0 Conclusion: CDDA 100% Signature: 9F37D81D8BC8EC32D87C78E56ACD0023ED07DDFFFILE: 05 - Barcelona.flac Size: 43478166 Hash: 84E64F03FDA8293F34973BA9EF03B538 Accuracy: -m0 Conclusion: CDDA 100% Signature: E3B91D28D79C8686C0763BFC740A3E7F7DF4FE8EFILE: 04 - The Long Road.flac Size: 43351201 Hash: 9F3D071704A13C91E7468F070C99C74A Accuracy: -m0 Conclusion: CDDA 100% Signature: 9C4BACC51C2092CC05426ADB2B3FDF19350F76ABFILE: 03 - You Know I Care.flac Size: 43005548 Hash: 13ED030E758B097D13363E2C286AB9A1 Accuracy: -m0 Conclusion: CDDA 100% Signature: 45AE7FDA41D6A6D46A414128E49EB6724219BA73FILE: 02 - Lennie Groove.flac Size: 48018260 Hash: CC950B6E3071B502952D6C7D96D5CE59 Accuracy: -m0 Conclusion: CDDA 100% Signature: BEE92E411143DC229BDA107C46C1A47618604BC2FILE: 01 - Mesa.flac Size: 48691711 Hash: 1B36ABC2A4AC8218DF044D966A2BFE55 Accuracy: -m0 Conclusion: CDDA 100% Signature: 81C78C5118400FCD861193D6CCDC5D4DA30B6EB4
Mark Turner (tenor saxophone);
Brad Mehldau (piano, Fender Rhodes);
Kurt Rosenwinkel (guitar);
Larry Grenadier (bass);
Brian Blade, Jorge Rossy (drums)


Трекер:  [ 29-Янв-2012 16:57 ]

  

Скачать .torrent

Размер .torrent файла 15 KB


Размер: 370 MB
Хэш (hash) релиза: 75c05eda0cbae8a3512adcb8b80e9a03466228a8

Еще никто не оставлял запись к записи скачать торрент Mark Turner - In This World - 1998, FLAC . Будь первым!

!Обратная связь