Скачать через торрент музыку Sam Levine - Sax for the Spirit - 2000, FLAC бесплатно без регистрации torrent

Если у вас наблюдаются проблемы со скриншотами, переходом по ссылками, скачиванием торрентов - проблемы в блокировщике рекламы AdBlock. #хорошегоДня!


Статистика раздачи
Размер:  350 MB   |    Зарегистрирован:  5 лет 8 месяцев   |    .torrent скачан:  34 раза   |   
Раздают:  1  
   
Загрузка...
 
Автор Сообщение

Umakiro

avatar Umakiro


Sam Levine - Sax for the Spirit

Жанр: Smooth Jazz
Страна-производитель диска: USA
Год издания диска: 2000
Издатель (лейбл): Green Hill Productions
Номер по каталогу: GHD5182
Страна: USA
Аудиокодек: FLAC (*.flac)
Тип рипа: image+.cue
Битрейт аудио: lossless
Продолжительность: 00:58:38
Источник (релизер): bastun
Наличие сканов в содержимом раздачи: нет
01. From A Distance [04:49]
02. Change The World [04:10]
03. The Greatest Love Of All [04:49]
04. I Can See Clearly Now [05:02]
05. When You Believe [05:21]
06. The Wind Beneath My Wings [05:11]
07. Shower The People [04:33]
08. Circle Of Life [04:56]
09. The Prayer [05:04]
10. Higher Love [05:22]
11. Bridge Over Troubled Waters [05:45]
12. The Water Is Wide [03:30]
 
Exact Audio Copy V0.99 prebeta 4 from 23. January 2008

EAC extraction logfile from 30. November 2011, 22:15

Sam Levine / Sax for the Spirit

Used drive : HL-DT-STDVDRAM GSA-H42N Adapter: 0 ID: 1

Read mode : SecureUtilize accurate stream : YesDefeat audio cache : YesMake use of C2 pointers : No

Read offset correction : 667Overread into Lead-In and Lead-Out : NoFill up missing offset samples with silence : YesDelete leading and trailing silent blocks : NoNull samples used in CRC calculations : YesUsed interface : Native Win32 interface for Win NT & 2000

Used output format : User Defined EncoderSelected bitrate : 768 kBit/sQuality : HighAdd ID3 tag : NoCommand line compressor : C:\Program Files\Exact Audio Copy\Flac\flac.exeAdditional command line options : -8 -V -T "ARTIST=%a" -T "TITLE=%t" -T "ALBUM=%g" -T "DATE=%y" -T "TRACKNUMBER=%n" -T "TOTALTRACKS=%x" -T "GENRE=%m" -T "ALBUMARTIST=%v" -T "ALBUM ARTIST=%v" -T "COMMENT=EAC Secure Mode, Test & Copy, AccurateRip, FLAC -8" %s

TOC of the extracted CD

Track | Start | Length | Start sector | End sector --------------------------------------------------------- 1 | 0:00.00 | 4:49.52 | 0 | 21726 2 | 4:49.52 | 4:10.35 | 21727 | 40511 3 | 9:00.12 | 4:49.56 | 40512 | 62242 4 | 13:49.68 | 5:02.60 | 62243 | 84952 5 | 18:52.53 | 5:21.29 | 84953 | 109056 6 | 24:14.07 | 5:11.18 | 109057 | 132399 7 | 29:25.25 | 4:33.28 | 132400 | 152902 8 | 33:58.53 | 4:56.42 | 152903 | 175144 9 | 38:55.20 | 5:04.33 | 175145 | 197977 10 | 43:59.53 | 5:22.01 | 197978 | 222128 11 | 49:21.54 | 5:45.66 | 222129 | 248069 12 | 55:07.45 | 3:31.00 | 248070 | 263894

Range status and errors

Selected range

Filename D:\My Rips\Sam Levine - Sax for the Spirit.wav

Peak level 99.0 % Range quality 100.0 % Test CRC C062B501 Copy CRC C062B501 Copy OK

No errors occurred

AccurateRip summary

Track 1 not present in databaseTrack 2 not present in databaseTrack 3 not present in databaseTrack 4 not present in databaseTrack 5 not present in databaseTrack 6 not present in databaseTrack 7 not present in databaseTrack 8 not present in databaseTrack 9 not present in databaseTrack 10 not present in databaseTrack 11 not present in databaseTrack 12 not present in database

None of the tracks are present in the AccurateRip database

End of status report
 
REM GENRE "Smooth Jazz"REM DATE 2000REM DISCID 980DBE0CREM COMMENT "ExactAudioCopy v0.99pb4"PERFORMER "Sam Levine"TITLE "Sax for the Spirit"FILE "Sam Levine - Sax for the Spirit.flac" WAVE TRACK 01 AUDIO TITLE "From A Distance" PERFORMER "Sam Levine" INDEX 01 00:00:00 TRACK 02 AUDIO TITLE "Change The World" PERFORMER "Sam Levine" INDEX 01 04:49:52 TRACK 03 AUDIO TITLE "The Greatest Love Of All" PERFORMER "Sam Levine" INDEX 01 09:00:12 TRACK 04 AUDIO TITLE "I Can See Clearly Now" PERFORMER "Sam Levine" INDEX 01 13:49:68 TRACK 05 AUDIO TITLE "When You Believe" PERFORMER "Sam Levine" INDEX 01 18:52:53 TRACK 06 AUDIO TITLE "The Wind Beneath My Wings" PERFORMER "Sam Levine" INDEX 01 24:14:07 TRACK 07 AUDIO TITLE "Shower The People" PERFORMER "Sam Levine" INDEX 01 29:25:25 TRACK 08 AUDIO TITLE "Circle Of Life" PERFORMER "Sam Levine" INDEX 01 33:58:53 TRACK 09 AUDIO TITLE "The Prayer" PERFORMER "Sam Levine" INDEX 01 38:55:20 TRACK 10 AUDIO TITLE "Higher Love" PERFORMER "Sam Levine" INDEX 01 43:59:53 TRACK 11 AUDIO TITLE "Bridge Over Troubled Waters" PERFORMER "Sam Levine" INDEX 01 49:21:54 TRACK 12 AUDIO TITLE "The Water Is Wide" PERFORMER "Sam Levine" INDEX 01 55:07:45
 
-----------------------

DON'T MODIFY THIS FILE

-----------------------

PERFORMER: auCDtect Task Manager, ver. 1.5.1RC6 build 1.5.1.7Copyright (c) 2008-2010 y-soft. All rights reservedhttp://y-soft.org

ANALYZER: auCDtect: CD records authenticity detector, version 0.8.2Copyright (c) 2004 Oleg Berngardt. All rights reserved.Copyright (c) 2004 Alexander Djourik. All rights reserved.

FILE: Sam Levine - Sax for the Spirit.flac Size: 366930963 Hash: 9E00F861BA176C23AECF5B0CFB3BCD49 Accuracy: -m0 Conclusion: CDDA 99% Signature: 75D0E98E5DD404B9D058AD54C3FCEE0959D4BE0B


Трекер:  [ 29-Янв-2012 16:56 ]

  

Скачать .torrent

Размер .torrent файла 14 KB


Размер: 350 MB
Хэш (hash) релиза: de3ce53ff72803cba9e93f8aec13d2b3586f6bf1

Еще никто не оставлял запись к записи скачать торрент Sam Levine - Sax for the Spirit - 2000, FLAC . Будь первым!

!Обратная связь