Скачать через торрент музыку Wes Montgomery - Movin Along - бесплатно без регистрации torrent

Если у вас наблюдаются проблемы со скриншотами, переходом по ссылками, скачиванием торрентов - проблемы в блокировщике рекламы AdBlock. #хорошегоДня!


Статистика раздачи
Размер:  290 MB   |    Зарегистрирован:  5 лет 8 месяцев   |    .torrent скачан:  17 раз   |   
Раздают:  1  
   
Загрузка...
 
Автор Сообщение

Umakiro

avatar Umakiro


Wes Montgomery / Movin' Along

Жанр: Hard Bop, Guitar Jazz
Страна-производитель диска: E.U.
Год издания диска: (1960) - 1989
Издатель (лейбл): Riverside/OJC
Номер по каталогу: OJCCD-2521-8608-923
Страна: US Indianapolis, IN
Аудиокодек: FLAC (*.flac)
Тип рипа: tracks+.cue
Битрейт аудио: lossless
Продолжительность: 00:52:55
Источник (релизер): Oceandrop
Наличие сканов в содержимом раздачи: да
Треклист:
01. Movin' Along [05:39]
02. Tune-Up [04:28]
03. Tune-Up (Take 9) [04:40]
04. I Don't Stand A Ghost of a Chance With You [05:00]
05. Sandu [03:23]
06. Body and Soul [07:19]
07. Body and Soul (Take 2) [11:18]
08. So Do It! [06:05]
09. Says You [05:01]
 
EAC extraction logfile from 20. May 2008, 22:11 for CDWes Montgomery / Movin' Along

Used drive : PLEXTOR CD-R PX-W2410A Adapter: 1 ID: 1Read mode : Secure with NO C2, accurate stream, disable cacheRead offset correction : 98Overread into Lead-In and Lead-Out : No

Used output format : C:\Archivos de programa\FLAC\flac.exe (User Defined Encoder) 192 kBit/s Additional command line options : --best -V -T "date=%y" -T "genre=%m" %s

Other options : Fill up missing offset samples with silence : Yes Delete leading and trailing silent blocks : No Installed external ASPI interface

Track 1 Filename C:\Archivos de programa\eMule\Incoming\Wes Montgomery - Movin' Along (1960) [Riverside]\01 - Wes Montgomery - Movin' Along.wav

Pre-gap length 0:00:02.00

Peak level 96.4 % Track quality 100.0 % Copy CRC 59977AB1 Copy OK

Track 2 Filename C:\Archivos de programa\eMule\Incoming\Wes Montgomery - Movin' Along (1960) [Riverside]\02 - Wes Montgomery - Tune-Up.wav

Pre-gap length 0:00:00.97

Peak level 97.4 % Track quality 100.0 % Copy CRC 6FAA0FFD Copy OK

Track 3 Filename C:\Archivos de programa\eMule\Incoming\Wes Montgomery - Movin' Along (1960) [Riverside]\03 - Wes Montgomery - Tune-Up (Take 9).wav

Pre-gap length 0:00:02.66

Peak level 93.0 % Track quality 100.0 % Copy CRC D0299D13 Copy OK

Track 4 Filename C:\Archivos de programa\eMule\Incoming\Wes Montgomery - Movin' Along (1960) [Riverside]\04 - Wes Montgomery - I Don't Stand A Ghost of a Chance With You.wav

Pre-gap length 0:00:03.13

Peak level 88.5 % Track quality 100.0 % Copy CRC D2D261C1 Copy OK

Track 5 Filename C:\Archivos de programa\eMule\Incoming\Wes Montgomery - Movin' Along (1960) [Riverside]\05 - Wes Montgomery - Sandu.wav

Pre-gap length 0:00:02.33

Peak level 91.8 % Track quality 100.0 % Copy CRC BA9BB492 Copy OK

Track 6 Filename C:\Archivos de programa\eMule\Incoming\Wes Montgomery - Movin' Along (1960) [Riverside]\06 - Wes Montgomery - Body and Soul.wav

Pre-gap length 0:00:03.57

Peak level 99.9 % Track quality 100.0 % Copy CRC 597DF547 Copy OK

Track 7 Filename C:\Archivos de programa\eMule\Incoming\Wes Montgomery - Movin' Along (1960) [Riverside]\07 - Wes Montgomery - Body and Soul (Take 2).wav

Pre-gap length 0:00:02.76

Peak level 89.6 % Track quality 100.0 % Copy CRC 012B8618 Copy OK

Track 8 Filename C:\Archivos de programa\eMule\Incoming\Wes Montgomery - Movin' Along (1960) [Riverside]\08 - Wes Montgomery - So Do It!.wav

Pre-gap length 0:00:02.66

Peak level 96.5 % Track quality 100.0 % Copy CRC 0ED1263B Copy OK

Track 9 Filename C:\Archivos de programa\eMule\Incoming\Wes Montgomery - Movin' Along (1960) [Riverside]\09 - Wes Montgomery - Says You.wav

Pre-gap length 0:00:01.49

Peak level 86.5 % Track quality 100.0 % Copy CRC 6803194E Copy OK

No errors occured

End of status report
 
REM GENRE JazzREM DATE 1960REM DISCID 7A0C7B09REM COMMENT "ExactAudioCopy v0.95b4"CATALOG 0025218608923PERFORMER "Wes Montgomery"TITLE "Movin' Along"FILE "01 - Wes Montgomery - Movin' Along.wav" WAVE TRACK 01 AUDIO TITLE "Movin' Along" PERFORMER "Wes Montgomery" ISRC USFI86000563 INDEX 01 00:00:00 TRACK 02 AUDIO TITLE "Tune-Up" PERFORMER "Wes Montgomery" ISRC USFI86000564 INDEX 00 05:39:17FILE "02 - Wes Montgomery - Tune-Up.wav" WAVE INDEX 01 00:00:00 TRACK 03 AUDIO TITLE "Tune-Up (Take 9)" PERFORMER "Wes Montgomery" ISRC USFI88200272 INDEX 00 04:28:40FILE "03 - Wes Montgomery - Tune-Up (Take 9).wav" WAVE INDEX 01 00:00:00 TRACK 04 AUDIO TITLE "I Don't Stand A Ghost of a Chance With You" PERFORMER "Wes Montgomery" ISRC USFI86000565 INDEX 00 04:40:12FILE "04 - Wes Montgomery - I Don't Stand A Ghost of a Chance With You.wav" WAVE INDEX 01 00:00:00 TRACK 05 AUDIO TITLE "Sandu" PERFORMER "Wes Montgomery" ISRC USFI86000566 INDEX 00 05:00:73FILE "05 - Wes Montgomery - Sandu.wav" WAVE INDEX 01 00:00:00 TRACK 06 AUDIO TITLE "Body and Soul" PERFORMER "Wes Montgomery" ISRC USFI86000567 INDEX 00 03:23:12FILE "06 - Wes Montgomery - Body and Soul.wav" WAVE INDEX 01 00:00:00 TRACK 07 AUDIO TITLE "Body and Soul (Take 2)" PERFORMER "Wes Montgomery" ISRC USFI88200271 INDEX 00 07:19:20FILE "07 - Wes Montgomery - Body and Soul (Take 2).wav" WAVE INDEX 01 00:00:00 TRACK 08 AUDIO TITLE "So Do It!" PERFORMER "Wes Montgomery" ISRC USFI86000568 INDEX 00 11:18:33FILE "08 - Wes Montgomery - So Do It!.wav" WAVE INDEX 01 00:00:00 TRACK 09 AUDIO TITLE "Says You" PERFORMER "Wes Montgomery" ISRC USFI86000569 INDEX 00 06:05:00FILE "09 - Wes Montgomery - Says You.wav" WAVE INDEX 01 00:00:00
 
-----------------------

DON'T MODIFY THIS FILE

-----------------------

PERFORMER: auCDtect Task Manager, ver. 1.5.1RC6 build 1.5.1.7Copyright (c) 2008-2010 y-soft. All rights reservedhttp://y-soft.org

ANALYZER: auCDtect: CD records authenticity detector, version 0.8.2Copyright (c) 2004 Oleg Berngardt. All rights reserved.Copyright (c) 2004 Alexander Djourik. All rights reserved.

FILE: 09 - Wes Montgomery - Says You.flac Size: 26395704 Hash: 1AA55A819EF6945A9B8A3609A70681C2 Accuracy: -m0 Conclusion: CDDA 100% Signature: EDD9B69E21468185262F63E7E8916A6DF7C96F07FILE: 08 - Wes Montgomery - So Do It!.flac Size: 37430416 Hash: 3E2DE314A915463E0FC092703D957545 Accuracy: -m0 Conclusion: CDDA 100% Signature: B316E39654D845C2CB4B03E881BEAA0B8E5CBF5FFILE: 07 - Wes Montgomery - Body and Soul (Take 2).flac Size: 61889315 Hash: A80BA987379AE270DC192A756F44A4E1 Accuracy: -m0 Conclusion: CDDA 100% Signature: 0D79793708DF5EFA5E07F684C1A94A674C760621FILE: 06 - Wes Montgomery - Body and Soul.flac Size: 40394088 Hash: 75C21BE7493766015B81B696DE50905C Accuracy: -m0 Conclusion: CDDA 100% Signature: 5DD74978E8421B03649FDCABE13ABB332F465B9CFILE: 05 - Wes Montgomery - Sandu.flac Size: 19235451 Hash: 1EB79BE7DD4119C89E9F8DD9D3921FEA Accuracy: -m0 Conclusion: CDDA 100% Signature: AF008BB870CFAC573008B00392B987E11E7BA006FILE: 04 - Wes Montgomery - I Don't Stand A Ghost of a Chance With You.flac Size: 23994112 Hash: 6E48FF4A0F87CB1922112CE2F04B397F Accuracy: -m0 Conclusion: CDDA 100% Signature: BDB9B0097153ABCB2278B8B1031E48F5B49DBF55FILE: 03 - Wes Montgomery - Tune-Up (Take 9).flac Size: 27811464 Hash: 01C9E353CCEA1F48D1732A0D441282A1 Accuracy: -m0 Conclusion: CDDA 99% Signature: FD812EEF3F268EE408DD79B6915C0A954845D0FFFILE: 02 - Wes Montgomery - Tune-Up.flac Size: 27214463 Hash: 7A67BA1D48ED663374EA894175A3786A Accuracy: -m0 Conclusion: CDDA 100% Signature: E8BA4090B9A2E9445A46B48034BDA657E7632696FILE: 01 - Wes Montgomery - Movin' Along.flac Size: 31386653 Hash: 6E7E0BAC9ACDE53A31292E5BF1F3015E Accuracy: -m0 Conclusion: CDDA 100% Signature: 1B45CC119D1A0E012892A770589609843A788A08
Wes Montgomery (guitar, bass);
James Clay (tenor saxophone, flute);
Victor Feldman (piano);
Sam Jones (bass);
Louis Hayes (drums).


Трекер:  [ 29-Янв-2012 16:56 ]

  

Скачать .torrent

Размер .torrent файла 13 KB


Размер: 290 MB
Хэш (hash) релиза: a15e65456d19745b603173babe54a7011495219f

Еще никто не оставлял запись к записи скачать торрент Wes Montgomery - Movin Along - . Будь первым!

!Обратная связь