Скачать через торрент музыку Sonny Rollins - All the Things You Are бесплатно без регистрации torrent

Если у вас наблюдаются проблемы со скриншотами, переходом по ссылками, скачиванием торрентов - проблемы в блокировщике рекламы AdBlock. #хорошегоДня!


Статистика раздачи
Размер:  340 MB   |    Зарегистрирован:  5 лет 8 месяцев   |    .torrent скачан:  37 раз   |   
Раздают:  1  
   
Загрузка...
 
Автор Сообщение

Umakiro

avatar Umakiro


Sonny Rollins / All the Things You Are (1963-1964)

Жанр: Hard Bop, Saxophone Jazz
Страна-производитель диска: USA
Год издания диска: 1990
Издатель (лейбл): Bluebird RCA
Номер по каталогу: 2179-2-RB
Страна: USA New York, NY
Аудиокодек: FLAC (*.flac)
Тип рипа: tracks+.cue
Битрейт аудио: lossless
Продолжительность: 01:06:33
Источник (релизер): signdown0
Наличие сканов в содержимом раздачи: нет
Треклист:
01. Yesterdays [05:12]
02. All The Things You Are [09:32]
03. Summertime [05:57]
04. Just Friends [04:40]
05. Lover Man [08:53]
06. McGhee [07:01]
07. Round Midnight [04:01]
08. Now's The Time [04:02]
09. Afternoon In Paris [02:43]
10. My One And Only Love [05:59]
11. It Could Happen To You [04:19]
12. Trav'lin' Light [04:09]
 
EAC extraction logfile from 29. July 2008, 13:20 for CDSonny Rollins / All the Things You Are (1963-64)

Used drive : MATSHITADVD-RAM UJ-850 Adapter: 1 ID: 0Read mode : Secure with NO C2, accurate stream, disable cacheRead offset correction : 102Overread into Lead-In and Lead-Out : No

Used output format : C:\Program Files\FLAC\flac.exe (User Defined Encoder) 128 kBit/s Additional command line options : -V -8 -T "artist=%a" -T "title=%t" -T "album=%g" -T "date=%y" -T "tracknumber=%n" -T "genre=%m" %s

Other options : Fill up missing offset samples with silence : Yes Delete leading and trailing silent blocks : No Native Win32 interface for Win NT & 2000

Track 1 Filename C:\EACRips\Sonny Rollins - 1964 - All the Things You Are (1963-64)\01 - Yesterdays.wav

Pre-gap length 0:00:02.37

Peak level 74.1 % Track quality 100.0 % Test CRC A752C127 Copy CRC A752C127 Copy OK

Track 2 Filename C:\EACRips\Sonny Rollins - 1964 - All the Things You Are (1963-64)\02 - All The Things You Are.wav

Pre-gap length 0:00:01.62

Peak level 80.4 % Track quality 100.0 % Test CRC 716EC2DB Copy CRC 716EC2DB Copy OK

Track 3 Filename C:\EACRips\Sonny Rollins - 1964 - All the Things You Are (1963-64)\03 - Summertime.wav

Pre-gap length 0:00:01.62

Peak level 61.0 % Track quality 100.0 % Test CRC 115319F5 Copy CRC 115319F5 Copy OK

Track 4 Filename C:\EACRips\Sonny Rollins - 1964 - All the Things You Are (1963-64)\04 - Just Friends.wav

Pre-gap length 0:00:01.63

Peak level 73.9 % Track quality 100.0 % Test CRC 8BA9FE2B Copy CRC 8BA9FE2B Copy OK

Track 5 Filename C:\EACRips\Sonny Rollins - 1964 - All the Things You Are (1963-64)\05 - Lover Man.wav

Pre-gap length 0:00:00.62

Peak level 70.3 % Track quality 100.0 % Test CRC 88734D17 Copy CRC 88734D17 Copy OK

Track 6 Filename C:\EACRips\Sonny Rollins - 1964 - All the Things You Are (1963-64)\06 - McGhee.wav

Pre-gap length 0:00:01.62

Peak level 92.1 % Track quality 99.9 % Test CRC 29DC50EA Copy CRC 29DC50EA Copy OK

Track 7 Filename C:\EACRips\Sonny Rollins - 1964 - All the Things You Are (1963-64)\07 - Round Midnight.wav

Pre-gap length 0:00:01.61

Peak level 63.5 % Track quality 100.0 % Test CRC 0253CE2C Copy CRC 0253CE2C Copy OK

Track 8 Filename C:\EACRips\Sonny Rollins - 1964 - All the Things You Are (1963-64)\08 - Now's The Time.wav

Pre-gap length 0:00:01.62

Peak level 83.0 % Track quality 100.0 % Test CRC 33764A26 Copy CRC 33764A26 Copy OK

Track 9 Filename C:\EACRips\Sonny Rollins - 1964 - All the Things You Are (1963-64)\09 - Afternoon In Paris.wav

Pre-gap length 0:00:01.63

Peak level 100.0 % Track quality 100.0 % Test CRC 86C43395 Copy CRC 86C43395 Copy OK

Track 10 Filename C:\EACRips\Sonny Rollins - 1964 - All the Things You Are (1963-64)\10 - My One And Only Love.wav

Pre-gap length 0:00:01.61

Peak level 75.0 % Track quality 100.0 % Test CRC 93B9B0A6 Copy CRC 93B9B0A6 Copy OK

Track 11 Filename C:\EACRips\Sonny Rollins - 1964 - All the Things You Are (1963-64)\11 - It Could Happen To You.wav

Pre-gap length 0:00:01.63

Peak level 71.5 % Track quality 100.0 % Test CRC 2AC2C090 Copy CRC 2AC2C090 Copy OK

Track 12 Filename C:\EACRips\Sonny Rollins - 1964 - All the Things You Are (1963-64)\12 - Trav'lin' Light.wav

Pre-gap length 0:00:01.62

Peak level 74.5 % Track quality 100.0 % Test CRC 2712027A Copy CRC 2712027A Copy OK

No errors occured

End of status report
 
REM GENRE JazzREM DATE 1964REM DISCID AC0FAD0CREM COMMENT "ExactAudioCopy v0.95b4"CATALOG 0000000000000PERFORMER "Sonny Rollins"TITLE "All the Things You Are (1963-64)"FILE "01 - Yesterdays.wav" WAVE TRACK 01 AUDIO TITLE "Yesterdays " PERFORMER "Sonny Rollins" PREGAP 00:00:37 INDEX 01 00:00:00 TRACK 02 AUDIO TITLE "All The Things You Are " PERFORMER "Sonny Rollins" INDEX 00 05:12:51FILE "02 - All The Things You Are.wav" WAVE INDEX 01 00:00:00 TRACK 03 AUDIO TITLE "Summertime " PERFORMER "Sonny Rollins" INDEX 00 09:32:58FILE "03 - Summertime.wav" WAVE INDEX 01 00:00:00 TRACK 04 AUDIO TITLE "Just Friends " PERFORMER "Sonny Rollins" INDEX 00 05:57:14FILE "04 - Just Friends.wav" WAVE INDEX 01 00:00:00 TRACK 05 AUDIO TITLE "Lover Man " PERFORMER "Sonny Rollins" INDEX 00 04:40:33FILE "05 - Lover Man.wav" WAVE INDEX 01 00:00:00 TRACK 06 AUDIO TITLE "McGhee" PERFORMER "Sonny Rollins" INDEX 00 08:53:06FILE "06 - McGhee.wav" WAVE INDEX 01 00:00:00 TRACK 07 AUDIO TITLE "Round Midnight " PERFORMER "Sonny Rollins" INDEX 00 07:01:16FILE "07 - Round Midnight.wav" WAVE INDEX 01 00:00:00 TRACK 08 AUDIO TITLE "Now's The Time " PERFORMER "Sonny Rollins" INDEX 00 04:01:53FILE "08 - Now's The Time.wav" WAVE INDEX 01 00:00:00 TRACK 09 AUDIO TITLE "Afternoon In Paris" PERFORMER "Sonny Rollins" INDEX 00 04:02:62FILE "09 - Afternoon In Paris.wav" WAVE INDEX 01 00:00:00 TRACK 10 AUDIO TITLE "My One And Only Love" PERFORMER "Sonny Rollins" INDEX 00 02:43:49FILE "10 - My One And Only Love.wav" WAVE INDEX 01 00:00:00 TRACK 11 AUDIO TITLE "It Could Happen To You" PERFORMER "Sonny Rollins" INDEX 00 05:59:35FILE "11 - It Could Happen To You.wav" WAVE INDEX 01 00:00:00 TRACK 12 AUDIO TITLE "Trav'lin' Light " PERFORMER "Sonny Rollins" INDEX 00 04:19:33FILE "12 - Trav'lin' Light.wav" WAVE INDEX 01 00:00:00
 
-----------------------

DON'T MODIFY THIS FILE

-----------------------

PERFORMER: auCDtect Task Manager, ver. 1.5.1RC6 build 1.5.1.7Copyright (c) 2008-2010 y-soft. All rights reservedhttp://y-soft.org

ANALYZER: auCDtect: CD records authenticity detector, version 0.8.2Copyright (c) 2004 Oleg Berngardt. All rights reserved.Copyright (c) 2004 Alexander Djourik. All rights reserved.

FILE: 12 - Trav'lin' Light.flac Size: 20933765 Hash: FFA27569E38FDD1E61299067DA679820 Accuracy: -m0 Conclusion: CDDA 99% Signature: 0683AC10769E54F83FD21AD803EE2B8D6CEDFF93FILE: 11 - It Could Happen To You.flac Size: 26093262 Hash: 1A9615397D033B68CE699DEB270C738D Accuracy: -m0 Conclusion: CDDA 100% Signature: 5A4CA908BDF14D3D0DD9740853FEC99501634777FILE: 10 - My One And Only Love.flac Size: 29447141 Hash: 0D3175A5A98F913F23871CE7C650E329 Accuracy: -m0 Conclusion: CDDA 100% Signature: B524F3EAACC51943EBAF5A0C9782095DA73BBF0BFILE: 09 - Afternoon In Paris.flac Size: 14815255 Hash: 142C36A935ECB62E35087D70AE10E997 Accuracy: -m0 Conclusion: CDDA 100% Signature: CCE77045378984CF233D1FAB2A81C6001C29E251FILE: 08 - Now's The Time.flac Size: 22610167 Hash: 59E3D9C9EB81DA026C09171AC9A38DEA Accuracy: -m0 Conclusion: CDDA 99% Signature: 94DEECCDD2C0676331C8087D8A3EBBAC5DC409AFFILE: 07 - Round Midnight.flac Size: 17602613 Hash: CE39D72916C028EA3DF2247D50BC7D5A Accuracy: -m0 Conclusion: CDDA 100% Signature: F82164681A4F72C7A921C5916AF1A052A18C985DFILE: 06 - McGhee.flac Size: 44163833 Hash: EE0712BA83510BF2DB5EF3D14EEECC1E Accuracy: -m0 Conclusion: CDDA 100% Signature: E2BBD73AB429720E81BBAD0461CD38875D20A1A6FILE: 05 - Lover Man.flac Size: 45073593 Hash: D123D983357BD66B614D9CB5BBFD82E5 Accuracy: -m0 Conclusion: CDDA 100% Signature: 6B25D0BBAC1137BBB906856B767B702B51D353A8FILE: 04 - Just Friends.flac Size: 27470106 Hash: 952F44E70C685380DDC3C7F6AF935D78 Accuracy: -m0 Conclusion: CDDA 100% Signature: D837766BFAF9AC2126C820E0FC6AC467399FB458FILE: 03 - Summertime.flac Size: 27581244 Hash: C14214A3A149673DAD4CEA1839ED965C Accuracy: -m0 Conclusion: CDDA 100% Signature: 877D50F7E42EBF6CE5B55CF12FAFBAE220392DFAFILE: 02 - All The Things You Are.flac Size: 54813317 Hash: E5B00BB3A93F49242CC355133BDDD188 Accuracy: -m0 Conclusion: CDDA 100% Signature: 757B988070E0E3F850970AC117D0DCA9E0BCC024FILE: 01 - Yesterdays.flac Size: 25943064 Hash: 0E6FCC5F35F3B3ABDD0B79F32C7596DC Accuracy: -m0 Conclusion: CDDA 100% Signature: 301294226C02CBD3F5839B62BE400A7698E18B91
Sonny Rollins, Coleman Hawkins (tenor saxophone);
Herbie Hancock, Paul Bley (piano);
Jim Hall (guitar);
Bob Cranshaw, Ron Carter, Henry Grimes, Teddy Smith, David Izenson (bass);
Mickey Roker, Roy McCurdy, Stu Martin (drums).
Producers: George Avakian.


Трекер:  [ 29-Янв-2012 16:55 ]

  

Скачать .torrent

Размер .torrent файла 14 KB


Размер: 340 MB
Хэш (hash) релиза: f17744a55a11bb9431a59d89e404dd8edd833bec

Еще никто не оставлял запись к записи скачать торрент Sonny Rollins - All the Things You Are . Будь первым!

!Обратная связь