Скачать через торрент музыку Milt Jackson, Joe Pass, Ray Brown - The Big 3 - 1994, FLAC бесплатно без регистрации torrent

Если у вас наблюдаются проблемы со скриншотами, переходом по ссылками, скачиванием торрентов - проблемы в блокировщике рекламы AdBlock. #хорошегоДня!


Статистика раздачи
Размер:  220 MB   |    Зарегистрирован:  5 лет 8 месяцев   |    .torrent скачан:  30 раз   |   
Раздают:  1  
   
Загрузка...
 
Автор Сообщение

Umakiro

avatar Umakiro


Milt Jackson, Joe Pass, Ray Brown - The Big 3

Жанр: Post-Bop, Mainstream Jazz
Страна-производитель диска: USA
Год издания диска: 1994
Издатель (лейбл): Pablo/OJC
Номер по каталогу: OJCCD-805-2(2310-757)
Страна: USA Detroit, MI
Аудиокодек: FLAC (*.flac)
Тип рипа: tracks+.cue
Битрейт аудио: lossless
Продолжительность: 00:43:47
Источник (релизер): Oceandrop
Наличие сканов в содержимом раздачи: да
01. The Pink Panther [05:54]
02. Nuages [07:26]
03. Blue Bossa [05:02]
04. Come Sunday [03:13]
05. Wave [06:50]
06. Moonglow [04:53]
07. You Stepped Out of a Dream [03:58]
08. Blues for Sammy [06:27]
 
EAC extraction logfile from 5. July 2007, 13:00 for CDMilt Jackson, Joe Pass & Ray Brown / The Big 3

Used drive : HL-DT-STDVDRAM GSA-4163B Adapter: 1 ID: 1Read mode : Secure with NO C2, accurate stream, disable cacheRead offset correction : 667Overread into Lead-In and Lead-Out : No

Used output format : Internal WAV Routines 44.100 Hz; 16 Bit; Stereo

Other options : Fill up missing offset samples with silence : Yes Delete leading and trailing silent blocks : No Installed external ASPI interface

Track 1 Filename D:\Milt Jackson, Joe Pass & Ray Brown - The Big 3 (1976)[FLAC]{OJC}\01 - The Pink Panther.wav

Pre-gap length 0:00:02.00

Peak level 100.0 % Test CRC F8D52076 Copy CRC F8D52076 Copy OK

Track 2 Filename D:\Milt Jackson, Joe Pass & Ray Brown - The Big 3 (1976)[FLAC]{OJC}\02 - Nuages.wav

Pre-gap length 0:00:02.60

Peak level 100.0 % Test CRC A76F2CF2 Copy CRC A76F2CF2 Copy OK

Track 3 Filename D:\Milt Jackson, Joe Pass & Ray Brown - The Big 3 (1976)[FLAC]{OJC}\03 - Blue Bossa.wav

Pre-gap length 0:00:01.59

Peak level 100.0 % Test CRC CF833BFA Copy CRC CF833BFA Copy OK

Track 4 Filename D:\Milt Jackson, Joe Pass & Ray Brown - The Big 3 (1976)[FLAC]{OJC}\04 - Come Sunday.wav

Pre-gap length 0:00:02.48

Peak level 100.0 % Test CRC 2E04C0E7 Copy CRC 2E04C0E7 Copy OK

Track 5 Filename D:\Milt Jackson, Joe Pass & Ray Brown - The Big 3 (1976)[FLAC]{OJC}\05 - Wave.wav

Pre-gap length 0:00:03.37

Peak level 100.0 % Test CRC F0BED527 Copy CRC F0BED527 Copy OK

Track 6 Filename D:\Milt Jackson, Joe Pass & Ray Brown - The Big 3 (1976)[FLAC]{OJC}\06 - Moonglow.wav

Pre-gap length 0:00:02.26

Peak level 83.7 % Test CRC F51FE457 Copy CRC F51FE457 Copy OK

Track 7 Filename D:\Milt Jackson, Joe Pass & Ray Brown - The Big 3 (1976)[FLAC]{OJC}\07 - You Stepped Out of a Dream.wav

Pre-gap length 0:00:02.16

Peak level 100.0 % Test CRC 024F25E2 Copy CRC 024F25E2 Copy OK

Track 8 Filename D:\Milt Jackson, Joe Pass & Ray Brown - The Big 3 (1976)[FLAC]{OJC}\08 - Blues for Sammy.wav

Pre-gap length 0:00:01.40

Peak level 75.5 % Test CRC FE9F8323 Copy CRC FE9F8323 Copy OK

No errors occured

End of status report
 
REM DATE 1976REM DISCID 5D0A5408REM COMMENT "ExactAudioCopy v0.95b2"PERFORMER "Milt Jackson, Joe Pass & Ray Brown"TITLE "The Big 3"FILE "01 - The Pink Panther.wav" WAVE TRACK 01 AUDIO TITLE "The Pink Panther" PERFORMER "Milt Jackson, Joe Pass & Ray Brown" INDEX 01 00:00:00 TRACK 02 AUDIO TITLE "Nuages" PERFORMER "Milt Jackson, Joe Pass & Ray Brown" INDEX 00 05:54:15FILE "02 - Nuages.wav" WAVE INDEX 01 00:00:00 TRACK 03 AUDIO TITLE "Blue Bossa" PERFORMER "Milt Jackson, Joe Pass & Ray Brown" INDEX 00 07:26:39FILE "03 - Blue Bossa.wav" WAVE INDEX 01 00:00:00 TRACK 04 AUDIO TITLE "Come Sunday" PERFORMER "Milt Jackson, Joe Pass & Ray Brown" INDEX 00 05:02:72FILE "04 - Come Sunday.wav" WAVE INDEX 01 00:00:00 TRACK 05 AUDIO TITLE "Wave" PERFORMER "Milt Jackson, Joe Pass & Ray Brown" INDEX 00 03:13:40FILE "05 - Wave.wav" WAVE INDEX 01 00:00:00 TRACK 06 AUDIO TITLE "Moonglow" PERFORMER "Milt Jackson, Joe Pass & Ray Brown" INDEX 00 06:50:54FILE "06 - Moonglow.wav" WAVE INDEX 01 00:00:00 TRACK 07 AUDIO TITLE "You Stepped Out of a Dream" PERFORMER "Milt Jackson, Joe Pass & Ray Brown" INDEX 00 04:53:14FILE "07 - You Stepped Out of a Dream.wav" WAVE INDEX 01 00:00:00 TRACK 08 AUDIO TITLE "Blues for Sammy" PERFORMER "Milt Jackson, Joe Pass & Ray Brown" INDEX 00 03:58:25FILE "08 - Blues for Sammy.wav" WAVE INDEX 01 00:00:00
 
-----------------------

DON'T MODIFY THIS FILE

-----------------------

PERFORMER: auCDtect Task Manager, ver. 1.5.1RC6 build 1.5.1.7Copyright (c) 2008-2010 y-soft. All rights reservedhttp://y-soft.org

ANALYZER: auCDtect: CD records authenticity detector, version 0.8.2Copyright (c) 2004 Oleg Berngardt. All rights reserved.Copyright (c) 2004 Alexander Djourik. All rights reserved.

FILE: 08 - Blues for Sammy.flac Size: 30101063 Hash: 566099F77121B2446B67BCF7C86D4B43 Accuracy: -m0 Conclusion: CDDA 100% Signature: CC9FD0315F610CDF10364BC4595EC19E0939F47CFILE: 07 - You Stepped Out of a Dream.flac Size: 20171951 Hash: 20F5142B6E34437CC018000267C80F32 Accuracy: -m0 Conclusion: CDDA 100% Signature: CF30897540771687D17ED0431DF364CC41BFB9A6FILE: 06 - Moonglow.flac Size: 24159166 Hash: 3E33FBD3583C0E47CF65B984D189A62D Accuracy: -m0 Conclusion: CDDA 100% Signature: D61240307FA27A624857685732FFA7D5A89F25F9FILE: 05 - Wave.flac Size: 34585438 Hash: 5C80E7F6A048C404B26445CD89B9C003 Accuracy: -m0 Conclusion: CDDA 100% Signature: C5A44E885FE48384CA78EF052E63B14EF9E29D3FFILE: 04 - Come Sunday.flac Size: 15618763 Hash: 198145202D1F3A40651C8C8A69D69C06 Accuracy: -m0 Conclusion: CDDA 100% Signature: E0A1B6770374891501491269085CF907D0DB89A6FILE: 03 - Blue Bossa.flac Size: 25060958 Hash: 0E110DAE8490C5F103D94D52371E0BAA Accuracy: -m0 Conclusion: CDDA 100% Signature: AB978C8D36731D2FB07C1C89700DD85CEC0EC3CDFILE: 02 - Nuages.flac Size: 36981649 Hash: C5C3E32574EC5E96BC8533E4FB703E2F Accuracy: -m0 Conclusion: CDDA 100% Signature: 73DA1BBFB0478A317E7DA643AF59952761D034DBFILE: 01 - The Pink Panther.flac Size: 29873767 Hash: 66DAED31BD09C1A915E9EE09919E3B83 Accuracy: -m0 Conclusion: CDDA 100% Signature: 9AD0E363E8FAC77E6082D5D7CA81883C4F0DD709
Milt Jackson - vibes
Joe Pass - guitar
Ray Brown - bass
 
[CUETools log; Date: 01.12.2011 19:19:23; Version: 2.0.9][CTDB TOCID: V7J8s756he83j8XvO51BSDvP4Yg-] found. [ CTDBID ] Status [9e98466b] (4/4) Accurately ripped[AccurateRip ID: 000dfbc0-005c02e9-5d0a5408] found.Track [ CRC ] Status 01 [3e6174df] (5/5) Accurately ripped 02 [c306a488] (5/5) Accurately ripped 03 [cf8cdde0] (5/5) Accurately ripped 04 [2864d0ea] (5/5) Accurately ripped 05 [286350d5] (5/5) Accurately ripped 06 [729c5c03] (5/5) Accurately ripped 07 [02c97442] (5/5) Accurately ripped 08 [f9a7ce6c] (5/5) Accurately ripped

Track Peak [ CRC32 ] [W/O NULL] [ LOG ] -- 100,0 [AC3F0215] [30FEC278] 01 100,0 [E0A2A4FB] [F8D52076] W/O NULL 02 100,0 [805AD1E5] [A76F2CF2] W/O NULL 03 100,0 [63FB0076] [CF833BFA] W/O NULL 04 100,0 [5F07D52C] [2E04C0E7] W/O NULL 05 100,0 [98F01882] [F0BED527] W/O NULL 06 83,7 [1262CBE1] [F51FE457] W/O NULL 07 100,0 [6ABD683E] [024F25E2] W/O NULL 08 75,5 [8B804675] [FE9F8323] W/O NULL


Трекер:  [ 29-Янв-2012 16:55 ]

  

Скачать .torrent

Размер .torrent файла 18 KB


Размер: 220 MB
Хэш (hash) релиза: 158844576917ecba26edd72477a45c6598eb86e5

Еще никто не оставлял запись к записи скачать торрент Milt Jackson, Joe Pass, Ray Brown - The Big 3 - 1994, FLAC . Будь первым!

!Обратная связь