Скачать через торрент музыку Gary Smulyan - Gary Smulyan with Strings - 1996, FLAC бесплатно без регистрации torrent

Если у вас наблюдаются проблемы со скриншотами, переходом по ссылками, скачиванием торрентов - проблемы в блокировщике рекламы AdBlock. #хорошегоДня!


Статистика раздачи
Размер:  336 MB   |    Зарегистрирован:  5 лет 8 месяцев   |    .torrent скачан:  25 раз   |   
Раздают:  1  
   
Загрузка...
 
Автор Сообщение

Umakiro

avatar Umakiro


Gary Smulyan - Gary Smulyan with Strings

Жанр: Post-Bop, Mainstream Jazz
Страна-производитель диска: USA
Год издания диска: 1996
Издатель (лейбл): Criss Cross Jazz
Номер по каталогу: 1129
Страна: US Bethpage, NY
Аудиокодек: FLAC (*.flac)
Тип рипа: tracks+.cue
Битрейт аудио: lossless
Продолжительность: 00:51:56
Источник (релизер): Musicgate
Наличие сканов в содержимом раздачи: да
01. The Bad and the Beautiful [02:49]
02. Lush Life [03:39]
03. Thanks For You [04:16]
04. It Happens Quietly [06:21]
05. Don't Follow the Crowd [05:22]
06. We've Got a Sure Thing [05:59]
07. Beware My Heart [04:54]
08. The Moment of Truth [06:08]
09. Yesterday's Gardenias [06:32]
10. Two for the Seesaw [05:56]

Recorded December 23, 1996 in New York City, NY, USA by Max Bolleman
 
Exact Audio Copy V0.99 prebeta 4 from 23. January 2008

EAC extraction logfile from 25. February 2009, 9:21

Gary Smulyan / Gary Smulyan with Strings

Used drive : PIONEER DVD-RW DVR-112D Adapter: 0 ID: 0

Read mode : SecureUtilize accurate stream : YesDefeat audio cache : YesMake use of C2 pointers : No

Read offset correction : 48Overread into Lead-In and Lead-Out : NoFill up missing offset samples with silence : YesDelete leading and trailing silent blocks : NoNull samples used in CRC calculations : YesUsed interface : Installed external ASPI interfaceGap handling : Appended to previous track

Used output format : User Defined EncoderSelected bitrate : 320 kBit/sQuality : HighAdd ID3 tag : YesCommand line compressor : C:\Program Files\Exact Audio Copy\Flac\flac.exeAdditional command line options : -V -8 -T "artist=%a" -T "title=%t" -T "album=%g" -T "date=%y" -T "tracknumber=%n" -T "genre=%m" %s

TOC of the extracted CD

Track | Start | Length | Start sector | End sector --------------------------------------------------------- 1 | 0:00.00 | 2:49.27 | 0 | 12701 2 | 2:49.27 | 3:43.28 | 12702 | 29454 3 | 6:32.55 | 4:20.30 | 29455 | 48984 4 | 10:53.10 | 6:25.00 | 48985 | 77859 5 | 17:18.10 | 5:25.60 | 77860 | 102294 6 | 22:43.70 | 6:02.62 | 102295 | 129506 7 | 28:46.57 | 4:58.48 | 129507 | 151904 8 | 33:45.30 | 6:12.35 | 151905 | 179839 9 | 39:57.65 | 6:36.00 | 179840 | 209539 10 | 46:33.65 | 5:56.20 | 209540 | 236259

Track 1

Filename D:\music\rip\Gary Smulyan - Gary Smulyan with Strings (1996) {Criss Cross Jazz}\01 - The Bad and the Beautiful.wav

Pre-gap length 0:00:02.00

Peak level 97.7 % Track quality 99.9 % Test CRC 2912EF8C Copy CRC 2912EF8C Track not present in AccurateRip database Copy OK

Track 2

Filename D:\music\rip\Gary Smulyan - Gary Smulyan with Strings (1996) {Criss Cross Jazz}\02 - Lush Life.wav

Pre-gap length 0:00:03.73

Peak level 98.0 % Track quality 100.0 % Test CRC C9826A42 Copy CRC C9826A42 Track not present in AccurateRip database Copy OK

Track 3

Filename D:\music\rip\Gary Smulyan - Gary Smulyan with Strings (1996) {Criss Cross Jazz}\03 - Thanks For You.wav

Pre-gap length 0:00:03.73

Peak level 98.0 % Track quality 100.0 % Test CRC 93111CCE Copy CRC 93111CCE Track not present in AccurateRip database Copy OK

Track 4

Filename D:\music\rip\Gary Smulyan - Gary Smulyan with Strings (1996) {Criss Cross Jazz}\04 - It Happens Quietly.wav

Pre-gap length 0:00:03.73

Peak level 98.0 % Track quality 100.0 % Test CRC 6CA7C6AC Copy CRC 6CA7C6AC Track not present in AccurateRip database Copy OK

Track 5

Filename D:\music\rip\Gary Smulyan - Gary Smulyan with Strings (1996) {Criss Cross Jazz}\05 - Don't Follow the Crowd.wav

Pre-gap length 0:00:03.73

Peak level 98.0 % Track quality 100.0 % Test CRC D494270E Copy CRC D494270E Track not present in AccurateRip database Copy OK

Track 6

Filename D:\music\rip\Gary Smulyan - Gary Smulyan with Strings (1996) {Criss Cross Jazz}\06 - We've Got a Sure Thing.wav

Pre-gap length 0:00:03.73

Peak level 98.0 % Track quality 100.0 % Test CRC 7F666774 Copy CRC 7F666774 Track not present in AccurateRip database Copy OK

Track 7

Filename D:\music\rip\Gary Smulyan - Gary Smulyan with Strings (1996) {Criss Cross Jazz}\07 - Beware My Heart.wav

Pre-gap length 0:00:03.73

Peak level 98.0 % Track quality 100.0 % Test CRC EB121D65 Copy CRC EB121D65 Track not present in AccurateRip database Copy OK

Track 8

Filename D:\music\rip\Gary Smulyan - Gary Smulyan with Strings (1996) {Criss Cross Jazz}\08 - The Moment of Truth.wav

Pre-gap length 0:00:03.73

Peak level 98.0 % Track quality 100.0 % Test CRC 295CE463 Copy CRC 295CE463 Track not present in AccurateRip database Copy OK

Track 9

Filename D:\music\rip\Gary Smulyan - Gary Smulyan with Strings (1996) {Criss Cross Jazz}\09 - Yesterday's Gardenias.wav

Pre-gap length 0:00:03.73

Peak level 98.0 % Track quality 100.0 % Test CRC DD1BB0E4 Copy CRC DD1BB0E4 Track not present in AccurateRip database Copy OK

Track 10

Filename D:\music\rip\Gary Smulyan - Gary Smulyan with Strings (1996) {Criss Cross Jazz}\10 - Two for the Seesaw.wav

Pre-gap length 0:00:03.73

Peak level 98.0 % Track quality 100.0 % Test CRC A93FEBB9 Copy CRC A93FEBB9 Track not present in AccurateRip database Copy OK

None of the tracks are present in the AccurateRip database

No errors occurred

End of status report
 
REM DATE 1996REM DISCID 8A0C4E0AREM COMMENT "ExactAudioCopy v0.99pb4"PERFORMER "Gary Smulyan"TITLE "Gary Smulyan with Strings"FILE "01 - The Bad and the Beautiful.wav" WAVE TRACK 01 AUDIO TITLE "The Bad and the Beautiful" PERFORMER "Gary Smulyan" INDEX 01 00:00:00 TRACK 02 AUDIO TITLE "Lush Life" PERFORMER "Gary Smulyan" INDEX 00 02:45:47FILE "02 - Lush Life.wav" WAVE INDEX 01 00:00:00 TRACK 03 AUDIO TITLE "Thanks For You" PERFORMER "Gary Smulyan" INDEX 00 03:39:48FILE "03 - Thanks For You.wav" WAVE INDEX 01 00:00:00 TRACK 04 AUDIO TITLE "It Happens Quietly" PERFORMER "Gary Smulyan" INDEX 00 04:16:50FILE "04 - It Happens Quietly.wav" WAVE INDEX 01 00:00:00 TRACK 05 AUDIO TITLE "Don't Follow the Crowd" PERFORMER "Gary Smulyan" INDEX 00 06:21:20FILE "05 - Don't Follow the Crowd.wav" WAVE INDEX 01 00:00:00 TRACK 06 AUDIO TITLE "We've Got a Sure Thing" PERFORMER "Gary Smulyan" INDEX 00 05:22:05FILE "06 - We've Got a Sure Thing.wav" WAVE INDEX 01 00:00:00 TRACK 07 AUDIO TITLE "Beware My Heart" PERFORMER "Gary Smulyan" INDEX 00 05:59:07FILE "07 - Beware My Heart.wav" WAVE INDEX 01 00:00:00 TRACK 08 AUDIO TITLE "The Moment of Truth" PERFORMER "Gary Smulyan" INDEX 00 04:54:68FILE "08 - The Moment of Truth.wav" WAVE INDEX 01 00:00:00 TRACK 09 AUDIO TITLE "Yesterday's Gardenias" PERFORMER "Gary Smulyan" INDEX 00 06:08:55FILE "09 - Yesterday's Gardenias.wav" WAVE INDEX 01 00:00:00 TRACK 10 AUDIO TITLE "Two for the Seesaw" PERFORMER "Gary Smulyan" INDEX 00 06:32:20FILE "10 - Two for the Seesaw.wav" WAVE INDEX 01 00:00:00
 
-----------------------

DON'T MODIFY THIS FILE

-----------------------

PERFORMER: auCDtect Task Manager, ver. 1.5.1RC6 build 1.5.1.7Copyright (c) 2008-2010 y-soft. All rights reservedhttp://y-soft.org

ANALYZER: auCDtect: CD records authenticity detector, version 0.8.2Copyright (c) 2004 Oleg Berngardt. All rights reserved.Copyright (c) 2004 Alexander Djourik. All rights reserved.

FILE: 10 - Two for the Seesaw.flac Size: 39995731 Hash: F795588B8634115BA7D612E7FB125F2F Accuracy: -m0 Conclusion: CDDA 100% Signature: 63A4D8805798F0C3B11CCC86A28831A3EC5F98C8FILE: 09 - Yesterday's Gardenias.flac Size: 40977736 Hash: D7567FFA472E15B4A6955E4E12D908D5 Accuracy: -m0 Conclusion: CDDA 100% Signature: 588793D45A1B6D3DB8D909BA7FFC09CE4D118F4DFILE: 08 - The Moment of Truth.flac Size: 42256230 Hash: 2074D643CDEBD3D6399BC54A3DAB1C79 Accuracy: -m0 Conclusion: CDDA 100% Signature: 5A10AFE95123BAB2381F709ABE194F7164898E51FILE: 07 - Beware My Heart.flac Size: 31830290 Hash: 2BB081FA064891D83091EA8BDC21207B Accuracy: -m0 Conclusion: CDDA 100% Signature: A2922187EA47FC475995BA2AF03A3890746508FBFILE: 06 - We've Got a Sure Thing.flac Size: 37906519 Hash: 076B56BC7E1A8929A3C6812BC569619A Accuracy: -m0 Conclusion: CDDA 100% Signature: 7CFCFCEE3A3CC8CBB7E38271FA3BD5FB7C8D9BDBFILE: 05 - Don't Follow the Crowd.flac Size: 32815307 Hash: 83E57DC244CB5870D671813AC8A039D3 Accuracy: -m0 Conclusion: CDDA 100% Signature: 46D4E5DE0E2BB560FA6F5BC20DC6402B17258262FILE: 04 - It Happens Quietly.flac Size: 42824932 Hash: B2B2002E18950F7FE3516156399E05D9 Accuracy: -m0 Conclusion: CDDA 100% Signature: 7A468B14EF899AEFB623C57676A59770E61E11E8FILE: 03 - Thanks For You.flac Size: 27139214 Hash: 9209343190B8C35BA9547A818E50724E Accuracy: -m0 Conclusion: CDDA 100% Signature: 02D82C3B8E1C80A03764FE2DFFA266B5254677BBFILE: 02 - Lush Life.flac Size: 21052752 Hash: 83A2547B55C35BE09C276F9914AFD939 Accuracy: -m0 Conclusion: CDDA 100% Signature: D7F2F741767EF6904EA74B75EDF05C21414BF5D1FILE: 01 - The Bad and the Beautiful.flac Size: 15893227 Hash: 8335A08D650B2DFE562289DC8D26BDEB Accuracy: -m0 Conclusion: CDDA 100% Signature: 725DE92ED8165C68C6A53B979C17CD884CF2BAF0
Gary Smulyan (baritone saxophone);
Mike LeDonne (piano)
Peter Washington (bass)
Kenny Washington (drums)
Bob Belden (Arranger conductor);
Mark Feldman (Violin)
Laura Seaton (Violin)
Jon Kass (Violin)
Regina Carter (Violin)
Cenovia Cummins (violin);
Ron Lawrence (viola);
Erik Friedlander (Cello)
Tomas Ulrich (Cello)
Clay Ruede (cello)


Трекер:  [ 29-Янв-2012 16:54 ]

  

Скачать .torrent

Размер .torrent файла 14 KB


Размер: 336 MB
Хэш (hash) релиза: 5080192c60c0e20751df287864ed9c329cd58e8f

Еще никто не оставлял запись к записи скачать торрент Gary Smulyan - Gary Smulyan with Strings - 1996, FLAC . Будь первым!

!Обратная связь