Скачать через торрент музыку Frank Sinatra - Sinatra: Best of the Best - 2011, FLAC бесплатно без регистрации torrent

Если у вас наблюдаются проблемы со скриншотами, переходом по ссылками, скачиванием торрентов - проблемы в блокировщике рекламы AdBlock. #хорошегоДня!


Статистика раздачи
Размер:  402 MB   |    Зарегистрирован:  5 лет 8 месяцев   |    .torrent скачан:  87 раз   |   
Раздают:  1  
   
Загрузка...
 
Автор Сообщение

Umakiro

avatar Umakiro


Frank Sinatra - Sinatra: Best of the Best

Жанр: Vocal Jazz
Год издания диска: 2011
Издатель (лейбл): EMI
Номер по каталогу: 5099967976423
Страна: USA Hoboken, NJ
Аудиокодек: FLAC (*.flac)
Тип рипа: tracks+.cue
Битрейт аудио: lossless
Продолжительность: 01:11:43
Источник (релизер): fantastik
Наличие сканов в содержимом раздачи: нет
01. I've Got the World On a String [02:09]
02. My Funny Valentine [02:29]
03. Young At Heart [02:48]
04. In the Wee Small Hours of the Morning [02:58]
05. Love and Marriage [02:37]
06. You Make Me Feel So Young [02:53]
07. I've Got You Under My Skin [03:40]
08. The Lady Is a Tramp [03:14]
09. Witchcraft [02:51]
10. All the Way [02:50]
11. Come Fly With Me [03:16]
12. Angel Eyes [03:42]
13. Nice 'N' Easy [02:44]
14. Night and Day [03:35]
15. The Way You Look Tonight [03:20]
16. My Kind of Town [03:08]
17. Fly Me to the Moon (in Other Words) [02:26]
18. It Was a Very Good Year [04:24]
19. Strangers in the Night [02:34]
20. Summer Wind [02:54]
21. That's Life [03:05]
22. My Way [04:33]
23. Theme from New York, New York [03:24]
 
X Lossless Decoder version 20111113 (137.1)

XLD extraction logfile from 2011-12-01 23:07:55 -0500

Frank Sinatra / Sinatra: Best Of The Best

Used drive : HL-DT-ST DVDRW GSA-S10N (revision BP10)

Ripper mode : XLD Secure RipperDisable audio cache : OK for the drive with a cache less than 1375KiBMake use of C2 pointers : NORead offset correction : 667Max retry count : 100Gap status : Analyzed, Appended

TOC of the extracted CD Track | Start | Length | Start sector | End sector --------------------------------------------------------- 1 | 00:00:00 | 02:10:13 | 0 | 9762 2 | 02:10:13 | 02:30:55 | 9763 | 21067 3 | 04:40:68 | 02:50:22 | 21068 | 33839 4 | 07:31:15 | 03:00:29 | 33840 | 47368 5 | 10:31:44 | 02:38:45 | 47369 | 59263 6 | 13:10:14 | 02:54:26 | 59264 | 72339 7 | 16:04:40 | 03:42:43 | 72340 | 89032 8 | 19:47:08 | 03:15:08 | 89033 | 103665 9 | 23:02:16 | 02:52:37 | 103666 | 116602 10 | 25:54:53 | 02:51:53 | 116603 | 129480 11 | 28:46:31 | 03:17:56 | 129481 | 144311 12 | 32:04:12 | 03:44:51 | 144312 | 161162 13 | 35:48:63 | 02:45:39 | 161163 | 173576 14 | 38:34:27 | 03:37:07 | 173577 | 189858 15 | 42:11:34 | 03:22:19 | 189859 | 205027 16 | 45:33:53 | 03:10:05 | 205028 | 219282 17 | 48:43:58 | 02:28:13 | 219283 | 230395 18 | 51:11:71 | 04:25:46 | 230396 | 250316 19 | 55:37:42 | 02:36:63 | 250317 | 262079 20 | 58:14:30 | 02:56:64 | 262080 | 275343 21 | 61:11:19 | 03:06:40 | 275344 | 289333 22 | 64:17:59 | 04:36:49 | 289334 | 310082 23 | 68:54:33 | 03:24:34 | 310083 | 325416

AccurateRip Summary Track 01 : OK (AR2, confidence 1) Track 02 : OK (AR2, confidence 1) Track 03 : OK (AR2, confidence 1) Track 04 : OK (AR2, confidence 1) Track 05 : OK (AR2, confidence 1) Track 06 : OK (AR2, confidence 1) Track 07 : OK (AR2, confidence 1) Track 08 : OK (AR2, confidence 1) Track 09 : OK (AR2, confidence 1) Track 10 : OK (AR2, confidence 1) Track 11 : OK (AR2, confidence 1) Track 12 : OK (AR2, confidence 1) Track 13 : OK (AR2, confidence 1) Track 14 : OK (AR2, confidence 1) Track 15 : OK (AR2, confidence 1) Track 16 : OK (AR2, confidence 1) Track 17 : OK (AR2, confidence 1) Track 18 : OK (AR2, confidence 1) Track 19 : OK (AR2, confidence 1) Track 20 : OK (AR2, confidence 1) Track 21 : NG Track 22 : OK (AR2, confidence 1) Track 23 : OK (AR2, confidence 1) ->22 track(s) accurately ripped, 1 track(s) not, 0 track(s) not found

All Tracks Album gain : -8.68 dB Peak : 1.000000 Statistics Read error : 0 Jitter error (maybe fixed) : 0 Retry sector count : 0 Damaged sector count : 0

Track 01 Filename : /Users/Letao/Downloads/Torrents/Self-Made Torrents/Frank Sinatra - 2011 - Sinatra_ Best of the Best [FLAC]/Frank Sinatra - Sinatraпјљ Best Of The Best (2011) [FLAC]/01 I've Got the World On a String.flac Pre-gap length : 00:02:00

Track gain : -10.52 dB Peak : 0.999969 CRC32 hash (test run) : 0EBEAD42 CRC32 hash : 0EBEAD42 CRC32 hash (skip zero) : C9D3DCE0 AccurateRip signature : CA1DC003 ->Accurately ripped! (AR2, confidence 1) Statistics Read error : 0 Jitter error (maybe fixed) : 0 Retry sector count : 0 Damaged sector count : 0

Track 02 Filename : /Users/Letao/Downloads/Torrents/Self-Made Torrents/Frank Sinatra - 2011 - Sinatra_ Best of the Best [FLAC]/Frank Sinatra - Sinatraпјљ Best Of The Best (2011) [FLAC]/02 My Funny Valentine.flac Pre-gap length : 00:01:10

Track gain : -6.47 dB Peak : 0.992981 CRC32 hash (test run) : 70D8B6CE CRC32 hash : 70D8B6CE CRC32 hash (skip zero) : CBD6C8D4 AccurateRip signature : E455CC22 ->Accurately ripped! (AR2, confidence 1) Statistics Read error : 0 Jitter error (maybe fixed) : 0 Retry sector count : 0 Damaged sector count : 0

Track 03 Filename : /Users/Letao/Downloads/Torrents/Self-Made Torrents/Frank Sinatra - 2011 - Sinatra_ Best of the Best [FLAC]/Frank Sinatra - Sinatraпјљ Best Of The Best (2011) [FLAC]/03 Young At Heart.flac Pre-gap length : 00:01:06

Track gain : -7.96 dB Peak : 0.996063 CRC32 hash (test run) : 84ED1459 CRC32 hash : 84ED1459 CRC32 hash (skip zero) : 24B02CF8 AccurateRip signature : DBCAB74A ->Accurately ripped! (AR2, confidence 1) Statistics Read error : 0 Jitter error (maybe fixed) : 0 Retry sector count : 0 Damaged sector count : 0

Track 04 Filename : /Users/Letao/Downloads/Torrents/Self-Made Torrents/Frank Sinatra - 2011 - Sinatra_ Best of the Best [FLAC]/Frank Sinatra - Sinatraпјљ Best Of The Best (2011) [FLAC]/04 In the Wee Small Hours of the Morning.flac Pre-gap length : 00:01:46

Track gain : -7.40 dB Peak : 0.991669 CRC32 hash (test run) : 888081D9 CRC32 hash : 888081D9 CRC32 hash (skip zero) : F175D4FB AccurateRip signature : 9FACE538 ->Accurately ripped! (AR2, confidence 1) Statistics Read error : 0 Jitter error (maybe fixed) : 0 Retry sector count : 0 Damaged sector count : 0

Track 05 Filename : /Users/Letao/Downloads/Torrents/Self-Made Torrents/Frank Sinatra - 2011 - Sinatra_ Best of the Best [FLAC]/Frank Sinatra - Sinatraпјљ Best Of The Best (2011) [FLAC]/05 Love and Marriage.flac Pre-gap length : 00:01:56

Track gain : -7.21 dB Peak : 1.000000 CRC32 hash (test run) : C10C8FC8 CRC32 hash : C10C8FC8 CRC32 hash (skip zero) : 819E79BB AccurateRip signature : EB734701 ->Accurately ripped! (AR2, confidence 1) Statistics Read error : 0 Jitter error (maybe fixed) : 0 Retry sector count : 0 Damaged sector count : 0

Track 06 Filename : /Users/Letao/Downloads/Torrents/Self-Made Torrents/Frank Sinatra - 2011 - Sinatra_ Best of the Best [FLAC]/Frank Sinatra - Sinatraпјљ Best Of The Best (2011) [FLAC]/06 You Make Me Feel So Young.flac Pre-gap length : 00:01:23

Track gain : -8.11 dB Peak : 1.000000 CRC32 hash (test run) : B17C2D94 CRC32 hash : B17C2D94 CRC32 hash (skip zero) : 27CE6F17 AccurateRip signature : 0404844F ->Accurately ripped! (AR2, confidence 1) Statistics Read error : 0 Jitter error (maybe fixed) : 0 Retry sector count : 0 Damaged sector count : 0

Track 07 Filename : /Users/Letao/Downloads/Torrents/Self-Made Torrents/Frank Sinatra - 2011 - Sinatra_ Best of the Best [FLAC]/Frank Sinatra - Sinatraпјљ Best Of The Best (2011) [FLAC]/07 I've Got You Under My Skin.flac Pre-gap length : 00:01:03

Track gain : -8.88 dB Peak : 0.972290 CRC32 hash (test run) : FD340283 CRC32 hash : FD340283 CRC32 hash (skip zero) : C1271F06 AccurateRip signature : 800973ED ->Accurately ripped! (AR2, confidence 1) Statistics Read error : 0 Jitter error (maybe fixed) : 0 Retry sector count : 0 Damaged sector count : 0

Track 08 Filename : /Users/Letao/Downloads/Torrents/Self-Made Torrents/Frank Sinatra - 2011 - Sinatra_ Best of the Best [FLAC]/Frank Sinatra - Sinatraпјљ Best Of The Best (2011) [FLAC]/08 The Lady Is a Tramp.flac Pre-gap length : 00:01:58

Track gain : -9.35 dB Peak : 1.000000 CRC32 hash (test run) : 9305E403 CRC32 hash : 9305E403 CRC32 hash (skip zero) : FDEA3E50 AccurateRip signature : 9AA5468F ->Accurately ripped! (AR2, confidence 1) Statistics Read error : 0 Jitter error (maybe fixed) : 0 Retry sector count : 0 Damaged sector count : 0

Track 09 Filename : /Users/Letao/Downloads/Torrents/Self-Made Torrents/Frank Sinatra - 2011 - Sinatra_ Best of the Best [FLAC]/Frank Sinatra - Sinatraпјљ Best Of The Best (2011) [FLAC]/09 Witchcraft.flac Pre-gap length : 00:00:69

Track gain : -9.82 dB Peak : 1.000000 CRC32 hash (test run) : 01F9B818 CRC32 hash : 01F9B818 CRC32 hash (skip zero) : A12339D6 AccurateRip signature : 453D7278 ->Accurately ripped! (AR2, confidence 1) Statistics Read error : 0 Jitter error (maybe fixed) : 0 Retry sector count : 0 Damaged sector count : 0

Track 10 Filename : /Users/Letao/Downloads/Torrents/Self-Made Torrents/Frank Sinatra - 2011 - Sinatra_ Best of the Best [FLAC]/Frank Sinatra - Sinatraпјљ Best Of The Best (2011) [FLAC]/10 All the Way.flac Pre-gap length : 00:01:18

Track gain : -7.89 dB Peak : 0.994080 CRC32 hash (test run) : 4D3C658E CRC32 hash : 4D3C658E CRC32 hash (skip zero) : 77BED367 AccurateRip signature : 7D418BEF ->Accurately ripped! (AR2, confidence 1) Statistics Read error : 0 Jitter error (maybe fixed) : 0 Retry sector count : 0 Damaged sector count : 0

Track 11 Filename : /Users/Letao/Downloads/Torrents/Self-Made Torrents/Frank Sinatra - 2011 - Sinatra_ Best of the Best [FLAC]/Frank Sinatra - Sinatraпјљ Best Of The Best (2011) [FLAC]/11 Come Fly With Me.flac Pre-gap length : 00:01:41

Track gain : -8.65 dB Peak : 1.000000 CRC32 hash (test run) : 97D0208C CRC32 hash : 97D0208C CRC32 hash (skip zero) : 48C197FC AccurateRip signature : A0B05849 ->Accurately ripped! (AR2, confidence 1) Statistics Read error : 0 Jitter error (maybe fixed) : 0 Retry sector count : 0 Damaged sector count : 0

Track 12 Filename : /Users/Letao/Downloads/Torrents/Self-Made Torrents/Frank Sinatra - 2011 - Sinatra_ Best of the Best [FLAC]/Frank Sinatra - Sinatraпјљ Best Of The Best (2011) [FLAC]/12 Angel Eyes.flac Pre-gap length : 00:00:62

Track gain : -6.71 dB Peak : 1.000000 CRC32 hash (test run) : 1F3CCC29 CRC32 hash : 1F3CCC29 CRC32 hash (skip zero) : 891F3365 AccurateRip signature : 5DA48ACD ->Accurately ripped! (AR2, confidence 1) Statistics Read error : 0 Jitter error (maybe fixed) : 0 Retry sector count : 0 Damaged sector count : 0

Track 13 Filename : /Users/Letao/Downloads/Torrents/Self-Made Torrents/Frank Sinatra - 2011 - Sinatra_ Best of the Best [FLAC]/Frank Sinatra - Sinatraпјљ Best Of The Best (2011) [FLAC]/13 Nice 'N' Easy.flac Pre-gap length : 00:02:05

Track gain : -8.35 dB Peak : 0.999939 CRC32 hash (test run) : 22F65028 CRC32 hash : 22F65028 CRC32 hash (skip zero) : 12FD3171 AccurateRip signature : 674C7206 ->Accurately ripped! (AR2, confidence 1) Statistics Read error : 0 Jitter error (maybe fixed) : 0 Retry sector count : 0 Damaged sector count : 0

Track 14 Filename : /Users/Letao/Downloads/Torrents/Self-Made Torrents/Frank Sinatra - 2011 - Sinatra_ Best of the Best [FLAC]/Frank Sinatra - Sinatraпјљ Best Of The Best (2011) [FLAC]/14 Night and Day.flac Pre-gap length : 00:01:23

Track gain : -8.38 dB Peak : 1.000000 CRC32 hash (test run) : DBBA05B6 CRC32 hash : DBBA05B6 CRC32 hash (skip zero) : D6139786 AccurateRip signature : ECDD097A ->Accurately ripped! (AR2, confidence 1) Statistics Read error : 0 Jitter error (maybe fixed) : 0 Retry sector count : 0 Damaged sector count : 0

Track 15 Filename : /Users/Letao/Downloads/Torrents/Self-Made Torrents/Frank Sinatra - 2011 - Sinatra_ Best of the Best [FLAC]/Frank Sinatra - Sinatraпјљ Best Of The Best (2011) [FLAC]/15 The Way You Look Tonight.flac Pre-gap length : 00:01:20

Track gain : -8.31 dB Peak : 0.928589 CRC32 hash (test run) : BCF48EF1 CRC32 hash : BCF48EF1 CRC32 hash (skip zero) : EC2DD8AE AccurateRip signature : 4F739264 ->Accurately ripped! (AR2, confidence 1) Statistics Read error : 0 Jitter error (maybe fixed) : 0 Retry sector count : 0 Damaged sector count : 0

Track 16 Filename : /Users/Letao/Downloads/Torrents/Self-Made Torrents/Frank Sinatra - 2011 - Sinatra_ Best of the Best [FLAC]/Frank Sinatra - Sinatraпјљ Best Of The Best (2011) [FLAC]/16 My Kind of Town.flac Pre-gap length : 00:02:02

Track gain : -8.61 dB Peak : 0.992371 CRC32 hash (test run) : 0DB02BC8 CRC32 hash : 0DB02BC8 CRC32 hash (skip zero) : 4908276B AccurateRip signature : 8D7AA2BA ->Accurately ripped! (AR2, confidence 1) Statistics Read error : 0 Jitter error (maybe fixed) : 0 Retry sector count : 0 Damaged sector count : 0

Track 17 Filename : /Users/Letao/Downloads/Torrents/Self-Made Torrents/Frank Sinatra - 2011 - Sinatra_ Best of the Best [FLAC]/Frank Sinatra - Sinatraпјљ Best Of The Best (2011) [FLAC]/17 Fly Me to the Moon (in Other Words).flac Pre-gap length : 00:01:41

Track gain : -9.25 dB Peak : 1.000000 CRC32 hash (test run) : 44DD4B4F CRC32 hash : 44DD4B4F CRC32 hash (skip zero) : D3D8B12F AccurateRip signature : 496313DE ->Accurately ripped! (AR2, confidence 1) Statistics Read error : 0 Jitter error (maybe fixed) : 0 Retry sector count : 0 Damaged sector count : 0

Track 18 Filename : /Users/Letao/Downloads/Torrents/Self-Made Torrents/Frank Sinatra - 2011 - Sinatra_ Best of the Best [FLAC]/Frank Sinatra - Sinatraпјљ Best Of The Best (2011) [FLAC]/18 It Was a Very Good Year.flac Pre-gap length : 00:02:06

Track gain : -9.16 dB Peak : 1.000000 CRC32 hash (test run) : D4B0E5B6 CRC32 hash : D4B0E5B6 CRC32 hash (skip zero) : 85BE471C AccurateRip signature : 9ECCDA72 ->Accurately ripped! (AR2, confidence 1) Statistics Read error : 0 Jitter error (maybe fixed) : 0 Retry sector count : 0 Damaged sector count : 0

Track 19 Filename : /Users/Letao/Downloads/Torrents/Self-Made Torrents/Frank Sinatra - 2011 - Sinatra_ Best of the Best [FLAC]/Frank Sinatra - Sinatraпјљ Best Of The Best (2011) [FLAC]/19 Strangers in the Night.flac Pre-gap length : 00:01:41

Track gain : -7.42 dB Peak : 1.000000 CRC32 hash (test run) : FC34A7A3 CRC32 hash : FC34A7A3 CRC32 hash (skip zero) : BA5BB504 AccurateRip signature : 69452AFB ->Accurately ripped! (AR2, confidence 1) Statistics Read error : 0 Jitter error (maybe fixed) : 0 Retry sector count : 0 Damaged sector count : 0

Track 20 Filename : /Users/Letao/Downloads/Torrents/Self-Made Torrents/Frank Sinatra - 2011 - Sinatra_ Best of the Best [FLAC]/Frank Sinatra - Sinatraпјљ Best Of The Best (2011) [FLAC]/20 Summer Wind.flac Pre-gap length : 00:02:29

Track gain : -7.82 dB Peak : 0.965668 CRC32 hash (test run) : 512DB0D6 CRC32 hash : 512DB0D6 CRC32 hash (skip zero) : 366AC58C AccurateRip signature : 062F2B34 ->Accurately ripped! (AR2, confidence 1) Statistics Read error : 0 Jitter error (maybe fixed) : 0 Retry sector count : 0 Damaged sector count : 0

Track 21 Filename : /Users/Letao/Downloads/Torrents/Self-Made Torrents/Frank Sinatra - 2011 - Sinatra_ Best of the Best [FLAC]/Frank Sinatra - Sinatraпјљ Best Of The Best (2011) [FLAC]/21 That's Life.flac Pre-gap length : 00:02:44

Track gain : -8.75 dB Peak : 0.908447 CRC32 hash (test run) : C91C81A8 CRC32 hash : C91C81A8 CRC32 hash (skip zero) : 527313D7 AccurateRip signature : A351DF01 ->Rip may not be accurate. Statistics Read error : 0 Jitter error (maybe fixed) : 0 Retry sector count : 0 Damaged sector count : 0

Track 22 Filename : /Users/Letao/Downloads/Torrents/Self-Made Torrents/Frank Sinatra - 2011 - Sinatra_ Best of the Best [FLAC]/Frank Sinatra - Sinatraпјљ Best Of The Best (2011) [FLAC]/22 My Way.flac Pre-gap length : 00:01:32

Track gain : -9.02 dB Peak : 0.965240 CRC32 hash (test run) : 0EB948CA CRC32 hash : 0EB948CA CRC32 hash (skip zero) : 760253F3 AccurateRip signature : 4751C6EC ->Accurately ripped! (AR2, confidence 1) Statistics Read error : 0 Jitter error (maybe fixed) : 0 Retry sector count : 0 Damaged sector count : 0

Track 23 Filename : /Users/Letao/Downloads/Torrents/Self-Made Torrents/Frank Sinatra - 2011 - Sinatra_ Best of the Best [FLAC]/Frank Sinatra - Sinatraпјљ Best Of The Best (2011) [FLAC]/23 Theme from New York, New York.flac Pre-gap length : 00:02:63

Track gain : -9.41 dB Peak : 0.986511 CRC32 hash (test run) : 0E44BC8D CRC32 hash : 0E44BC8D CRC32 hash (skip zero) : B484D873 AccurateRip signature : BF8C5A3A ->Accurately ripped! (AR2, confidence 1) Statistics Read error : 0 Jitter error (maybe fixed) : 0 Retry sector count : 0 Damaged sector count : 0

No errors occurred

End of status report
 
TITLE "Sinatra: Best Of The Best"PERFORMER "Frank Sinatra"CATALOG 5099967976423REM GENRE "Pop"REM DATE "2011"REM DISCNUMBER 1REM TOTALDISCS 1REM DISCID 5F10F217FILE "01 I've Got the World On a String.wav" WAVE TRACK 01 AUDIO TITLE "I've Got the World On a String" SONGWRITER "Ted Koehler/Harold Arlen" ISRC USCA21102120 INDEX 01 00:00:00 TRACK 02 AUDIO TITLE "My Funny Valentine" SONGWRITER "Richard Rodgers/Lorenz Hart" ISRC USCA21102115 INDEX 00 02:09:03FILE "02 My Funny Valentine.wav" WAVE INDEX 01 00:00:00 TRACK 03 AUDIO TITLE "Young At Heart" SONGWRITER "Johnny Richards/Carolyn Leigh" ISRC USCA21102116 INDEX 00 02:29:49FILE "03 Young At Heart.wav" WAVE INDEX 01 00:00:00 TRACK 04 AUDIO TITLE "In the Wee Small Hours of the Morning" SONGWRITER "Dave Mann/Bob Hilliard" ISRC USCA21102117 INDEX 00 02:48:51FILE "04 In the Wee Small Hours of the Morning.wav" WAVE INDEX 01 00:00:00 TRACK 05 AUDIO TITLE "Love and Marriage" SONGWRITER "Sammy Cahn/James Van Heusen" ISRC USCA21102118 INDEX 00 02:58:48FILE "05 Love and Marriage.wav" WAVE INDEX 01 00:00:00 TRACK 06 AUDIO TITLE "You Make Me Feel So Young" SONGWRITER "Josef Myrow/Mack Gordon" ISRC USCA21102119 INDEX 00 02:37:22FILE "06 You Make Me Feel So Young.wav" WAVE INDEX 01 00:00:00 TRACK 07 AUDIO TITLE "I've Got You Under My Skin" SONGWRITER "Cole Porter" ISRC USCA21102114 INDEX 00 02:53:23FILE "07 I've Got You Under My Skin.wav" WAVE INDEX 01 00:00:00 TRACK 08 AUDIO TITLE "The Lady Is a Tramp" SONGWRITER "Lorenz Hart/Richard Rodgers" ISRC USCA21102121 INDEX 00 03:40:60FILE "08 The Lady Is a Tramp.wav" WAVE INDEX 01 00:00:00 TRACK 09 AUDIO TITLE "Witchcraft" SONGWRITER "Cy Coleman/Carolyn Leigh" ISRC USCA21102122 INDEX 00 03:14:14FILE "09 Witchcraft.wav" WAVE INDEX 01 00:00:00 TRACK 10 AUDIO TITLE "All the Way" SONGWRITER "James Van Heusen/Sammy Cahn" ISRC USCA21102123 INDEX 00 02:51:19FILE "10 All the Way.wav" WAVE INDEX 01 00:00:00 TRACK 11 AUDIO TITLE "Come Fly With Me" SONGWRITER "Sammy Cahn/James Van Heusen" ISRC USCA21102124 INDEX 00 02:50:12FILE "11 Come Fly With Me.wav" WAVE INDEX 01 00:00:00 TRACK 12 AUDIO TITLE "Angel Eyes" SONGWRITER "Matt Dennis/Earl Brent" ISRC USCA20902801 INDEX 00 03:16:69FILE "12 Angel Eyes.wav" WAVE INDEX 01 00:00:00 TRACK 13 AUDIO TITLE "Nice 'N' Easy" SONGWRITER "Marilyn Bergman/Alan Bergman/Lew Spence" ISRC USCA21102126 INDEX 00 03:42:46FILE "13 Nice 'N' Easy.wav" WAVE INDEX 01 00:00:00 TRACK 14 AUDIO TITLE "Night and Day" SONGWRITER "Cole Porter" INDEX 00 02:44:16FILE "14 Night and Day.wav" WAVE INDEX 01 00:00:00 TRACK 15 AUDIO TITLE "The Way You Look Tonight" SONGWRITER "Jerome Kern/Dorothy Fields" INDEX 00 03:35:62FILE "15 The Way You Look Tonight.wav" WAVE INDEX 01 00:00:00 TRACK 16 AUDIO TITLE "My Kind of Town" SONGWRITER "Sammy Cahn/James Van Heusen" INDEX 00 03:20:17FILE "16 My Kind of Town.wav" WAVE INDEX 01 00:00:00 TRACK 17 AUDIO TITLE "Fly Me to the Moon (in Other Words)" SONGWRITER "Bart Howard" INDEX 00 03:08:39FILE "17 Fly Me to the Moon (in Other Words).wav" WAVE INDEX 01 00:00:00 TRACK 18 AUDIO TITLE "It Was a Very Good Year" SONGWRITER "Ervin Drake" INDEX 00 02:26:07FILE "18 It Was a Very Good Year.wav" WAVE INDEX 01 00:00:00 TRACK 19 AUDIO TITLE "Strangers in the Night" SONGWRITER "Bert Kaempfert/Charles Singleton/Eddie Snyder" INDEX 00 04:24:05FILE "19 Strangers in the Night.wav" WAVE INDEX 01 00:00:00 TRACK 20 AUDIO TITLE "Summer Wind" SONGWRITER "henry mayer/Hans Bradtke/Johnny Mercer" INDEX 00 02:34:34FILE "20 Summer Wind.wav" WAVE INDEX 01 00:00:00 TRACK 21 AUDIO TITLE "That's Life" SONGWRITER "Kelly Gordon/Dean K. Thompson" INDEX 00 02:54:20FILE "21 That's Life.wav" WAVE INDEX 01 00:00:00 TRACK 22 AUDIO TITLE "My Way" SONGWRITER "Jacques Revaux/Gilles Thibaut/Claude François/Paul Anka" INDEX 00 03:05:08FILE "22 My Way.wav" WAVE INDEX 01 00:00:00 TRACK 23 AUDIO TITLE "Theme from New York, New York" SONGWRITER "Fred Ebb/John Kander" INDEX 00 04:33:61FILE "23 Theme from New York, New York.wav" WAVE INDEX 01 00:00:00
 
-----------------------

DON'T MODIFY THIS FILE

-----------------------

PERFORMER: auCDtect Task Manager, ver. 1.5.1RC6 build 1.5.1.7Copyright (c) 2008-2010 y-soft. All rights reservedhttp://y-soft.org

ANALYZER: auCDtect: CD records authenticity detector, version 0.8.2Copyright (c) 2004 Oleg Berngardt. All rights reserved.Copyright (c) 2004 Alexander Djourik. All rights reserved.

FILE: 23 Theme from New York, New York.flac Size: 22777927 Hash: 8C255A1A24EA693D5FC20695FF03747A Accuracy: -m0 Conclusion: CDDA 100% Signature: BC1A020EF0046426698670E86605E8E80E3036C0FILE: 22 My Way.flac Size: 30105977 Hash: 1DF49879BD9878D1B830973AA6573CBD Accuracy: -m0 Conclusion: CDDA 100% Signature: 802FEB41139B79252D0C10C29321D096A1C3EED3FILE: 21 That's Life.flac Size: 19334732 Hash: 1E0D73F4AAFE8B0C6B896C32B658B384 Accuracy: -m0 Conclusion: CDDA 100% Signature: A1C062225DCBBC3F9EB21838C5E1F2923F280E17FILE: 20 Summer Wind.flac Size: 19576917 Hash: 79FD9B37C946643AB78EDC2B62871746 Accuracy: -m0 Conclusion: CDDA 100% Signature: ACB7F042A2A828C8CDCBF1841FDECADE95BD7F6AFILE: 19 Strangers in the Night.flac Size: 16815804 Hash: B23964FD74D709B7747FF1F642105268 Accuracy: -m0 Conclusion: CDDA 100% Signature: 3C3DDB4914DF63D5C4BAB4C2012E0948387656AEFILE: 18 It Was a Very Good Year.flac Size: 27707569 Hash: DF6B65A92985C6EE90D023D51335E323 Accuracy: -m0 Conclusion: CDDA 100% Signature: EF05FC34B488BDA4A0AB41F6B218FD638D35F163FILE: 17 Fly Me to the Moon (in Other Words).flac Size: 14719415 Hash: 0F66E4DDE04F466A1AA38D6032331FF9 Accuracy: -m0 Conclusion: CDDA 100% Signature: FBF6784CF5D35A54956E1E8A4699AA2E79E98EB1FILE: 16 My Kind of Town.flac Size: 21009981 Hash: 9DC23CA37BE4E029DD76E2287EE2C854 Accuracy: -m0 Conclusion: CDDA 100% Signature: 8F0AE1BD4B2380D2C8E63A183D5CED8CA53BFF81FILE: 15 The Way You Look Tonight.flac Size: 22431201 Hash: D553FFDEF3016F560656BABF7D76E8C4 Accuracy: -m0 Conclusion: CDDA 100% Signature: DBE6A012F2A4EE0154E6EF6071DEF286E5B2136BFILE: 14 Night and Day.flac Size: 21736386 Hash: 6080C6A513AC79E6E8709AEDBED46CDD Accuracy: -m0 Conclusion: CDDA 100% Signature: A7ED1528185A5C02FC8611B9B43466C493BB5E55FILE: 13 Nice 'N' Easy.flac Size: 17923645 Hash: 7439FD98CD313D3A47E151630E2198AA Accuracy: -m0 Conclusion: CDDA 100% Signature: 6B68A4B486FC55BF55CE76F9110EB95081CF4EB0FILE: 12 Angel Eyes.flac Size: 23169580 Hash: CBEB030F13519F00E974CFDAA439C0A6 Accuracy: -m0 Conclusion: CDDA 100% Signature: 07CA329DE14E052CA054E1384D9E75C6D1352979FILE: 11 Come Fly With Me.flac Size: 17749949 Hash: F163FE7BEA69368A805C17BE6B1E1146 Accuracy: -m0 Conclusion: CDDA 100% Signature: 72EB65B42516F18F968CDF97F21C2AB58C0D13E5FILE: 10 All the Way.flac Size: 13837346 Hash: 0EF2EBDE48213A7A8DC4FD24DCAD1F29 Accuracy: -m0 Conclusion: CDDA 100% Signature: 89755F468747F56518D2B1B6452C4746CB6A983DFILE: 09 Witchcraft.flac Size: 14654058 Hash: CA8F5B6DA6A63ECB98389308D1C0EE18 Accuracy: -m0 Conclusion: CDDA 100% Signature: 3D77B6C9213F16CF93FBF06AE686A006B8C68A6FFILE: 08 The Lady Is a Tramp.flac Size: 18329696 Hash: 51D536251C211A2341B5E1DA0DC4BB01 Accuracy: -m0 Conclusion: CDDA 100% Signature: 8986C83562D84609904A6674FCAA927F06750702FILE: 07 I've Got You Under My Skin.flac Size: 18513104 Hash: 1F0CE4CD96479F630BBCFE40712D56C9 Accuracy: -m0 Conclusion: CDDA 99% Signature: CE83B7F5A7238800DAE94C261383107540CBBC79FILE: 06 You Make Me Feel So Young.flac Size: 14920921 Hash: AA6C0161C6B158B4C75D0CC9681F9A13 Accuracy: -m0 Conclusion: CDDA 100% Signature: EE47043555EC1857B9D83B6E62CB746F5B329088FILE: 05 Love and Marriage.flac Size: 14316274 Hash: 6566288776C8DED0A4E69D8732E69669 Accuracy: -m0 Conclusion: CDDA 100% Signature: AD5E572AD84AC686EB3F04A588640C13653619D9FILE: 04 In the Wee Small Hours of the Morning.flac Size: 13558793 Hash: 51EB1CCEFB9FB264D13A3266FCE51AAD Accuracy: -m0 Conclusion: CDDA 100% Signature: 53B00744B12639AFB62F96CBCBD13E023F7CD8F3FILE: 03 Young At Heart.flac Size: 14999681 Hash: 8586EE3AF4F35F373BC7491D679EE469 Accuracy: -m0 Conclusion: CDDA 100% Signature: 68F0ED27F90129BCB44FD4D096FE1A982E576640FILE: 02 My Funny Valentine.flac Size: 11531296 Hash: EB14EF41C21CA9F5E3EBEBB333B4451E Accuracy: -m0 Conclusion: CDDA 100% Signature: C73525D29081182D8F25C5C37F21652AFBB83784FILE: 01 I've Got the World On a String.flac Size: 11761629 Hash: AE9FF36D7F82A6855604325500A139CC Accuracy: -m0 Conclusion: CDDA 100% Signature: 1AE8E2DE5D089D410B653ADC56C9293E478AAC15


Трекер:  [ 29-Янв-2012 16:54 ]

  

Скачать .torrent

Размер .torrent файла 17 KB


Размер: 402 MB
Хэш (hash) релиза: eda7adcf5b79181cb531e7cec4d677d113a4416c

Еще никто не оставлял запись к записи скачать торрент Frank Sinatra - Sinatra: Best of the Best - 2011, FLAC . Будь первым!

!Обратная связь