Скачать через торрент музыку Scott Colley Quartet - Subliminal ... - 1997, FLAC бесплатно без регистрации torrent

Если у вас наблюдаются проблемы со скриншотами, переходом по ссылками, скачиванием торрентов - проблемы в блокировщике рекламы AdBlock. #хорошегоДня!


Статистика раздачи
Размер:  320 MB   |    Зарегистрирован:  5 лет 8 месяцев   |    .torrent скачан:  23 раза   |   
Раздают:  1  
   
Загрузка...
 
Автор Сообщение

Umakiro

avatar Umakiro


Scott Colley Quartet / Subliminal ...

Жанр: Post-Bop
Страна-производитель диска: USA
Год издания диска: 1997
Издатель (лейбл): Criss Cross Jazz
Номер по каталогу: 1157 CD
Страна: US Los Angeles, CA
Аудиокодек: FLAC (*.flac)
Тип рипа: tracks+.cue
Битрейт аудио: lossless
Продолжительность: 00:58:01
Источник (релизер): Halowdance
Наличие сканов в содержимом раздачи: да
Треклист:
01. Don't Ever Call Me Again (Stewart) [05:49]
02. Subliminal (Colley) [08:14]
03. The End And The Beginning (Colley) [04:34]
04. Turangalila (Potter) [07:33]
05. Out Of The Void (Colley) [07:30]
06. Segment (Parker) [05:35]
07. Is What It Is (Colley) [06:07]
08. Impossible Vacation (Colley) [06:11]
09. Verbatim (Colley) [06:25]
 
X Lossless Decoder version 20110212 (127.0)

XLD extraction logfile from 2011-02-26 08:27:35 +0100

Scott Colley / Scott Colley Quartet - Subliminal...

Used drive : MATSHITA DVD-R UJ-85J (revision FBZ8)

Ripper mode : CDParanoia III 10.2Disable audio cache : OK for the drive with a cache less than 2750KiBMake use of C2 pointers : NORead offset correction : 102Max retry count : 100Gap status : Analyzed, Appended

TOC of the extracted CD Track | Start | Length | Start sector | End sector --------------------------------------------------------- 1 | 00:00:00 | 05:52:72 | 0 | 26471 2 | 05:52:72 | 08:17:65 | 26472 | 63811 3 | 14:10:62 | 04:38:03 | 63812 | 84664 4 | 18:48:65 | 07:37:15 | 84665 | 118954 5 | 26:26:05 | 07:34:50 | 118955 | 153054 6 | 34:00:55 | 05:39:05 | 153055 | 178484 7 | 39:39:60 | 06:11:40 | 178485 | 206349 8 | 45:51:25 | 06:15:25 | 206350 | 234499 9 | 52:06:50 | 06:25:10 | 234500 | 263384

AccurateRip Summary Disc not found in AccurateRip DB.

All Tracks Album gain : -3.61 dB Peak : 1.000000 Statistics Read error : 0 Skipped (treated as error) : 0 Edge jitter error (maybe fixed) : 0 Atom jitter error (maybe fixed) : 2 Drift error (maybe fixed) : 0 Dropped bytes error (maybe fixed) : 0 Duplicated bytes error (maybe fixed) : 0

Track 01 Filename : /01 - Don't Ever Call Me Again (Stewart).flac Pre-gap length : 00:02:00

Track gain : -4.96 dB Peak : 1.000000 CRC32 hash (test run) : 0BC41CD7 CRC32 hash : 0BC41CD7 CRC32 hash (skip zero) : C35701F4 AccurateRip signature : D3A7F27B ->Track not present in AccurateRip database. Statistics Read error : 0 Skipped (treated as error) : 0 Edge jitter error (maybe fixed) : 0 Atom jitter error (maybe fixed) : 0 Drift error (maybe fixed) : 0 Dropped bytes error (maybe fixed) : 0 Duplicated bytes error (maybe fixed) : 0 Inconsistency in error sectors : 0

Track 02 Filename : /02 - Subliminal (Colley).flac Pre-gap length : 00:03:60

Track gain : -3.83 dB Peak : 1.000000 CRC32 hash (test run) : 9BEAE88B CRC32 hash : 9BEAE88B CRC32 hash (skip zero) : A27AEF99 AccurateRip signature : 858EA471 ->Track not present in AccurateRip database. Statistics Read error : 0 Skipped (treated as error) : 0 Edge jitter error (maybe fixed) : 0 Atom jitter error (maybe fixed) : 0 Drift error (maybe fixed) : 0 Dropped bytes error (maybe fixed) : 0 Duplicated bytes error (maybe fixed) : 0 Inconsistency in error sectors : 0

Track 03 Filename : /03 - The End And The Beginning (Colley).flac Pre-gap length : 00:03:60

Track gain : 4.66 dB Peak : 0.533295 CRC32 hash (test run) : 55C6E575 CRC32 hash : 55C6E575 CRC32 hash (skip zero) : 53784768 AccurateRip signature : DC12A2D0 ->Track not present in AccurateRip database. Statistics Read error : 0 Skipped (treated as error) : 0 Edge jitter error (maybe fixed) : 0 Atom jitter error (maybe fixed) : 0 Drift error (maybe fixed) : 0 Dropped bytes error (maybe fixed) : 0 Duplicated bytes error (maybe fixed) : 0 Inconsistency in error sectors : 0

Track 04 Filename : /04 - Turangalila (Potter).flac Pre-gap length : 00:03:60

Track gain : -2.78 dB Peak : 0.985382 CRC32 hash (test run) : 356EDE69 CRC32 hash : 356EDE69 CRC32 hash (skip zero) : 367FD268 AccurateRip signature : 80280065 ->Track not present in AccurateRip database. Statistics Read error : 0 Skipped (treated as error) : 0 Edge jitter error (maybe fixed) : 0 Atom jitter error (maybe fixed) : 0 Drift error (maybe fixed) : 0 Dropped bytes error (maybe fixed) : 0 Duplicated bytes error (maybe fixed) : 0 Inconsistency in error sectors : 0

Track 05 Filename : /05 - Out Of The Void (Colley).flac Pre-gap length : 00:03:60

Track gain : -3.49 dB Peak : 0.995544 CRC32 hash (test run) : 402177A1 CRC32 hash : 402177A1 CRC32 hash (skip zero) : 0E38DD64 AccurateRip signature : 509D7C53 ->Track not present in AccurateRip database. Statistics Read error : 0 Skipped (treated as error) : 0 Edge jitter error (maybe fixed) : 0 Atom jitter error (maybe fixed) : 0 Drift error (maybe fixed) : 0 Dropped bytes error (maybe fixed) : 0 Duplicated bytes error (maybe fixed) : 0 Inconsistency in error sectors : 0

Track 06 Filename : /06 - Segment (Parker).flac Pre-gap length : 00:03:60

Track gain : -4.26 dB Peak : 1.000000 CRC32 hash (test run) : 6570F03A CRC32 hash : 6570F03A CRC32 hash (skip zero) : F22148FC AccurateRip signature : E061333C ->Track not present in AccurateRip database. Statistics Read error : 0 Skipped (treated as error) : 0 Edge jitter error (maybe fixed) : 0 Atom jitter error (maybe fixed) : 0 Drift error (maybe fixed) : 0 Dropped bytes error (maybe fixed) : 0 Duplicated bytes error (maybe fixed) : 0 Inconsistency in error sectors : 0

Track 07 Filename : /07 - Is What It Is (Colley).flac Pre-gap length : 00:03:60

Track gain : -3.97 dB Peak : 1.000000 CRC32 hash (test run) : D19DC21C CRC32 hash : D19DC21C CRC32 hash (skip zero) : E4175207 AccurateRip signature : 686E20F1 ->Track not present in AccurateRip database. Statistics Read error : 0 Skipped (treated as error) : 0 Edge jitter error (maybe fixed) : 0 Atom jitter error (maybe fixed) : 0 Drift error (maybe fixed) : 0 Dropped bytes error (maybe fixed) : 0 Duplicated bytes error (maybe fixed) : 0 Inconsistency in error sectors : 0

Track 08 Filename : /08 - Impossible Vacation (Colley).flac Pre-gap length : 00:03:60

Track gain : -1.77 dB Peak : 0.982544 CRC32 hash (test run) : 1BB7F1B5 CRC32 hash : 1BB7F1B5 CRC32 hash (skip zero) : 137591F3 AccurateRip signature : FF2ABE0C ->Track not present in AccurateRip database. Statistics Read error : 0 Skipped (treated as error) : 0 Edge jitter error (maybe fixed) : 0 Atom jitter error (maybe fixed) : 0 Drift error (maybe fixed) : 0 Dropped bytes error (maybe fixed) : 0 Duplicated bytes error (maybe fixed) : 0 Inconsistency in error sectors : 0

Track 09 Filename : /09 - Verbatim (Colley).flac Pre-gap length : 00:03:60

Track gain : -3.56 dB Peak : 1.000000 CRC32 hash (test run) : 69223B21 CRC32 hash : 69223B21 CRC32 hash (skip zero) : 2550D5C4 AccurateRip signature : 4AA1A888 ->Track not present in AccurateRip database. Statistics Read error : 0 Skipped (treated as error) : 0 Edge jitter error (maybe fixed) : 0 Atom jitter error (maybe fixed) : 2 Drift error (maybe fixed) : 0 Dropped bytes error (maybe fixed) : 0 Duplicated bytes error (maybe fixed) : 0 Inconsistency in error sectors : 0

No errors occurred

End of status report
 
TITLE "Scott Colley Quartet - Subliminal..."PERFORMER "Scott Colley"REM GENRE "Pop"REM DATE 2006REM DISCNUMBER 1REM TOTALDISCS 1REM DISCID 6D0DB709FILE "01 - Don't Ever Call Me Again (Stewart).wav" WAVE TRACK 01 AUDIO TITLE "Don't Ever Call Me Again (Stewart)" INDEX 01 00:00:00 TRACK 02 AUDIO TITLE "Subliminal (Colley)" INDEX 00 05:49:12FILE "02 - Subliminal (Colley).wav" WAVE INDEX 01 00:00:00 TRACK 03 AUDIO TITLE "The End And The Beginning (Colley)" INDEX 00 08:14:05FILE "03 - The End And The Beginning (Colley).wav" WAVE INDEX 01 00:00:00 TRACK 04 AUDIO TITLE "Turangalila (Potter)" INDEX 00 04:34:18FILE "04 - Turangalila (Potter).wav" WAVE INDEX 01 00:00:00 TRACK 05 AUDIO TITLE "Out Of The Void (Colley)" INDEX 00 07:33:30FILE "05 - Out Of The Void (Colley).wav" WAVE INDEX 01 00:00:00 TRACK 06 AUDIO TITLE "Segment (Parker)" INDEX 00 07:30:65FILE "06 - Segment (Parker).wav" WAVE INDEX 01 00:00:00 TRACK 07 AUDIO TITLE "Is What It Is (Colley)" INDEX 00 05:35:20FILE "07 - Is What It Is (Colley).wav" WAVE INDEX 01 00:00:00 TRACK 08 AUDIO TITLE "Impossible Vacation (Colley)" INDEX 00 06:07:55FILE "08 - Impossible Vacation (Colley).wav" WAVE INDEX 01 00:00:00 TRACK 09 AUDIO TITLE "Verbatim (Colley)" INDEX 00 06:11:40FILE "09 - Verbatim (Colley).wav" WAVE INDEX 01 00:00:00
 
-----------------------

DON'T MODIFY THIS FILE

-----------------------

PERFORMER: auCDtect Task Manager, ver. 1.5.1RC6 build 1.5.1.7Copyright (c) 2008-2010 y-soft. All rights reservedhttp://y-soft.org

ANALYZER: auCDtect: CD records authenticity detector, version 0.8.2Copyright (c) 2004 Oleg Berngardt. All rights reserved.Copyright (c) 2004 Alexander Djourik. All rights reserved.

FILE: 09 - Verbatim (Colley).flac Size: 38706196 Hash: 46459DB37961B6A1F932133156F55D11 Accuracy: -m0 Conclusion: CDDA 100% Signature: 637BC0DFBCFBB9CE8C6AFE043791944E3D6528B3FILE: 08 - Impossible Vacation (Colley).flac Size: 35909725 Hash: 7160913BD91EC0DFF086B160622CD67C Accuracy: -m0 Conclusion: CDDA 100% Signature: 681373067396EC4AA65E3431B3539684A13DD1F9FILE: 07 - Is What It Is (Colley).flac Size: 34794734 Hash: F20C8483F80B4563553153D3EFFF1FA7 Accuracy: -m0 Conclusion: CDDA 99% Signature: 607C092C321D3AFD0170A0A850E7F30AFA6A9237FILE: 06 - Segment (Parker).flac Size: 35477762 Hash: E1581E2122C3710A8AB8689F44F6AB30 Accuracy: -m0 Conclusion: CDDA 100% Signature: A5C3F07FFE4F90D6EF0B0ED148B18470988A54EEFILE: 05 - Out Of The Void (Colley).flac Size: 41611033 Hash: EDD41A56CA05D41624F75C9131FBEA81 Accuracy: -m0 Conclusion: CDDA 100% Signature: 74540E6FC76AD1DA5FA3AA6DF82C16751B817942FILE: 04 - Turangalila (Potter).flac Size: 42950887 Hash: 32FFD69B731EB612AD0F18E1E2036F9E Accuracy: -m0 Conclusion: CDDA 100% Signature: C4E24117B6007F5AB4878B45915495299DD1A78BFILE: 03 - The End And The Beginning (Colley).flac Size: 20951364 Hash: A21DE51B4B4E16332D61131B4191D7D4 Accuracy: -m0 Conclusion: CDDA 100% Signature: C5BE6B1A065674944D74A97DDE063B4CC28279FEFILE: 02 - Subliminal (Colley).flac Size: 48217608 Hash: B2EAC8D9956A245DD32DA5AC7D358B97 Accuracy: -m0 Conclusion: CDDA 100% Signature: 4490205950EB95EF910DEBEF8726ACA0FADA2A29FILE: 01 - Don't Ever Call Me Again (Stewart).flac Size: 35440119 Hash: 0FF0257053C44DEC1E6E1AC19D219BF5 Accuracy: -m0 Conclusion: CDDA 100% Signature: CDA5700C1E862CA7E7F31D0CDAE74D99865FB0A8
Chris Potter-Tenor Saxophone & Bass Clarinet
Bill Carrothers-Piano
Scott Colley-Acoustic Bass
Bill Stewart-Drums


Трекер:  [ 29-Янв-2012 16:53 ]

  

Скачать .torrent

Размер .torrent файла 14 KB


Размер: 320 MB
Хэш (hash) релиза: a5145ecf90c38d19dcc1c8707c60548192c9038e

Еще никто не оставлял запись к записи скачать торрент Scott Colley Quartet - Subliminal ... - 1997, FLAC . Будь первым!

!Обратная связь