Скачать через торрент музыку The Hal Galper Trio - Portrait - 1989, FLAC бесплатно без регистрации torrent

Если у вас наблюдаются проблемы со скриншотами, переходом по ссылками, скачиванием торрентов - проблемы в блокировщике рекламы AdBlock. #хорошегоДня!


Статистика раздачи
Размер:  316 MB   |    Зарегистрирован:  5 лет 8 месяцев   |    .torrent скачан:  21 раз   |   
Раздают:  1  
   
Загрузка...
 
Автор Сообщение

Umakiro

avatar Umakiro


The Hal Galper Trio / Portrait

Жанр: Post-Bop, Piano Jazz
Страна-производитель диска: USA
Год издания диска: 1989
Издатель (лейбл): Concord Jazz
Номер по каталогу: ССD 4383
Страна: USA Salem, MA
Аудиокодек: FLAC (*.flac)
Тип рипа: tracks+.cue
Битрейт аудио: lossless
Продолжительность: 00:54:02
Источник (релизер): mishka1981
Наличие сканов в содержимом раздачи: да
Треклист:
01. After You've Gone [07:03]
02. Giant Step [03:49]
03. What Is This Thing Called Love? [06:41]
04. If I Didn't Care [05:53]
05. Azure [07:54]
06. I Should Care [07:26]
07. I'll Be Seeing You [07:53]
08. In Your Own Sweet Way [07:21]
 
Exact Audio Copy V1.0 beta 1 from 15. November 2010

EAC extraction logfile from 1. December 2011, 13:40

The Hal Galper Trio / Portrait

Used drive : Optiarc DVD RW AD-7710H Adapter: 1 ID: 0

Read mode : SecureUtilize accurate stream : YesDefeat audio cache : YesMake use of C2 pointers : No

Read offset correction : 48Overread into Lead-In and Lead-Out : NoFill up missing offset samples with silence : YesDelete leading and trailing silent blocks : NoNull samples used in CRC calculations : YesUsed interface : Native Win32 interface for Win NT & 2000Gap handling : Appended to previous track

Used output format : User Defined EncoderSelected bitrate : 896 kBit/sQuality : HighAdd ID3 tag : NoCommand line compressor : C:\Program Files\Exact Audio Copy\FLAC\FLAC.EXEAdditional command line options : -8 -V -T "ARTIST=%a" -T "TITLE=%t" -T "ALBUM=%g" -T "DATE=%y" -T "TRACKNUMBER=%n" -T "GENRE=%m" -T "COMMENT=%e" %j--picture="%i"%j %s -o %d

TOC of the extracted CD

Track | Start | Length | Start sector | End sector --------------------------------------------------------- 1 | 0:00.00 | 7:06.10 | 0 | 31959 2 | 7:06.10 | 3:51.53 | 31960 | 49337 3 | 10:57.63 | 6:43.67 | 49338 | 79629 4 | 17:41.55 | 5:55.30 | 79630 | 106284 5 | 23:37.10 | 7:54.45 | 106285 | 141879 6 | 31:31.55 | 7:29.40 | 141880 | 175594 7 | 39:01.20 | 7:55.58 | 175595 | 211277 8 | 46:57.03 | 7:21.05 | 211278 | 244357

Track 1

Filename C:\MY RIPS\01 - After You've Gone.wav

Pre-gap length 0:00:02.00

Peak level 90.4 % Extraction speed 3.1 X Track quality 100.0 % Test CRC C4F5F8CE Copy CRC C4F5F8CE Track not present in AccurateRip database Copy OK

Track 2

Filename C:\MY RIPS\02 - Giant Step.wav

Pre-gap length 0:00:03.00

Peak level 63.3 % Extraction speed 3.2 X Track quality 100.0 % Test CRC 7CD3278C Copy CRC 7CD3278C Track not present in AccurateRip database Copy OK

Track 3

Filename C:\MY RIPS\03 - What Is This Thing Called Love.wav

Pre-gap length 0:00:02.28

Peak level 87.7 % Extraction speed 3.9 X Track quality 100.0 % Test CRC FAEF55E2 Copy CRC FAEF55E2 Track not present in AccurateRip database Copy OK

Track 4

Filename C:\MY RIPS\04 - If I Didn't Care.wav

Pre-gap length 0:00:02.02

Peak level 82.6 % Extraction speed 4.2 X Track quality 100.0 % Test CRC F628E5B1 Copy CRC F628E5B1 Track not present in AccurateRip database Copy OK

Track 5

Filename C:\MY RIPS\05 - Azure.wav

Pre-gap length 0:00:02.30

Peak level 87.6 % Extraction speed 4.6 X Track quality 100.0 % Test CRC 6DE1FFE4 Copy CRC 6DE1FFE4 Track not present in AccurateRip database Copy OK

Track 6

Filename C:\MY RIPS\06 - I Should Care.wav

Peak level 88.6 % Extraction speed 5.0 X Track quality 100.0 % Test CRC 2CA0F166 Copy CRC 2CA0F166 Track not present in AccurateRip database Copy OK

Track 7

Filename C:\MY RIPS\07 - I'll Be Seeing You.wav

Pre-gap length 0:00:02.60

Peak level 85.5 % Extraction speed 5.4 X Track quality 100.0 % Test CRC 69B87DA7 Copy CRC 69B87DA7 Track not present in AccurateRip database Copy OK

Track 8

Filename C:\MY RIPS\08 - In Your Own Sweet Way.wav

Pre-gap length 0:00:02.50

Peak level 90.3 % Extraction speed 5.7 X Track quality 100.0 % Test CRC CA06DC98 Copy CRC CA06DC98 Track not present in AccurateRip database Copy OK

None of the tracks are present in the AccurateRip database

No errors occurred

End of status report

==== Log checksum C502C04F97D80D4127FF9790DC315726835972B04AF5112E7AECD21C34C13224 ====
 
REM GENRE JazzREM DATE 1989REM DISCID 720CBA08REM COMMENT "ExactAudioCopy v1.0b1"PERFORMER "The Hal Galper Trio"TITLE "Portrait"FILE "01 - After You've Gone.wav" WAVE TRACK 01 AUDIO TITLE "After You've Gone" PERFORMER "The Hal Galper Trio" INDEX 01 00:00:00 TRACK 02 AUDIO TITLE "Giant Step" PERFORMER "The Hal Galper Trio" INDEX 00 07:03:10FILE "02 - Giant Step.wav" WAVE INDEX 01 00:00:00 TRACK 03 AUDIO TITLE "What Is This Thing Called Love?" PERFORMER "The Hal Galper Trio" INDEX 00 03:49:25FILE "03 - What Is This Thing Called Love.wav" WAVE INDEX 01 00:00:00 TRACK 04 AUDIO TITLE "If I Didn't Care" PERFORMER "The Hal Galper Trio" INDEX 00 06:41:65FILE "04 - If I Didn't Care.wav" WAVE INDEX 01 00:00:00 TRACK 05 AUDIO TITLE "Azure" PERFORMER "The Hal Galper Trio" INDEX 00 05:53:00FILE "05 - Azure.wav" WAVE INDEX 01 00:00:00FILE "06 - I Should Care.wav" WAVE TRACK 06 AUDIO TITLE "I Should Care" PERFORMER "The Hal Galper Trio" INDEX 01 00:00:00 TRACK 07 AUDIO TITLE "I'll Be Seeing You" PERFORMER "The Hal Galper Trio" INDEX 00 07:26:55FILE "07 - I'll Be Seeing You.wav" WAVE INDEX 01 00:00:00 TRACK 08 AUDIO TITLE "In Your Own Sweet Way" PERFORMER "The Hal Galper Trio" INDEX 00 07:53:08FILE "08 - In Your Own Sweet Way.wav" WAVE INDEX 01 00:00:00
 
-----------------------

DON'T MODIFY THIS FILE

-----------------------

PERFORMER: auCDtect Task Manager, ver. 1.5.1RC6 build 1.5.1.7Copyright (c) 2008-2010 y-soft. All rights reservedhttp://y-soft.org

ANALYZER: auCDtect: CD records authenticity detector, version 0.8.2Copyright (c) 2004 Oleg Berngardt. All rights reserved.Copyright (c) 2004 Alexander Djourik. All rights reserved.

FILE: 08 - In Your Own Sweet Way.flac Size: 42917762 Hash: 7888581B0FD24A7D00CCD9AAE8CC726D Accuracy: -m0 Conclusion: CDDA 100% Signature: BA7CEA986318FB22BBF18ED8EBB61E1C12759262FILE: 07 - I'll Be Seeing You.flac Size: 47996715 Hash: B27F08BDCFAB4A9BFFC6E26CB5B421D3 Accuracy: -m0 Conclusion: MPEG 95% Signature: 98D4C3D2F550599BBC72162358B48145ABC50021FILE: 06 - I Should Care.flac Size: 43713579 Hash: 5529BB862F572CC564FA0C32DE7F7D36 Accuracy: -m0 Conclusion: CDDA 100% Signature: 1942F809B25D16ADBF475E65753C84658A3D925EFILE: 05 - Azure.flac Size: 48563045 Hash: 9E720007436C6831CC225494E408EDAD Accuracy: -m0 Conclusion: CDDA 99% Signature: 4539103D749883171B4AF2601BB9DEEA60E42864FILE: 04 - If I Didn't Care.flac Size: 35908686 Hash: 760DA0B50B210D07E658B73E73CA9031 Accuracy: -m0 Conclusion: CDDA 100% Signature: EA3FB304BEAE308841B5F6FFCAEE95383A19E3A8FILE: 03 - What Is This Thing Called Love.flac Size: 46645348 Hash: 4E0E3668188DC3B23987B3B3AF421AB8 Accuracy: -m0 Conclusion: CDDA 100% Signature: 64E806783C8148FEE828FAB2911C8ECF64671125FILE: 02 - Giant Step.flac Size: 15603319 Hash: D9CE9D99F5A43C7C85E3B1E70D2D86C2 Accuracy: -m0 Conclusion: CDDA 100% Signature: 1AEC1BF1F14DA1A093772D2EB2C8AE3EA7C190E4FILE: 01 - After You've Gone.flac Size: 46492059 Hash: FE847D085BC9A6E0B2CD9019EC200ABA Accuracy: -m0 Conclusion: CDDA 100% Signature: B93F8FE9F97ECD3A522603C734F26ED72C61FBCC
Hal Galper Trio:
Hal Galper (piano)
Ray Drummond (bass),
Billy Hart (drums)


Трекер:  [ 29-Янв-2012 16:53 ]

  

Скачать .torrent

Размер .torrent файла 13 KB


Размер: 316 MB
Хэш (hash) релиза: fdcfab93219326a93c52fe1a0b2a93a720d68d6f

Еще никто не оставлял запись к записи скачать торрент The Hal Galper Trio - Portrait - 1989, FLAC . Будь первым!

!Обратная связь