Скачать через торрент музыку Hank Jones - Tiptoe Tapdance - бесплатно без регистрации torrent

Если у вас наблюдаются проблемы со скриншотами, переходом по ссылками, скачиванием торрентов - проблемы в блокировщике рекламы AdBlock. #хорошегоДня!


Статистика раздачи
Размер:  148 MB   |    Зарегистрирован:  5 лет 8 месяцев   |    .torrent скачан:  28 раз   |   
Раздают:  1  
   
Загрузка...
 
Автор Сообщение

Umakiro

avatar Umakiro


Hank Jones / Tiptoe Tapdance

Жанр: Bop, Piano
Страна-производитель диска: USA
Год издания диска: (1978) - 1992
Издатель (лейбл): Galaxy/OJC
Номер по каталогу: OJCCD-719-2(GXY5108)
Страна: USA Vicksburg, MS
Аудиокодек: FLAC (*.flac)
Тип рипа: tracks+.cue
Битрейт аудио: lossless
Продолжительность: 00:37:20
Источник (релизер): Oceandrop
Наличие сканов в содержимом раздачи: да
Треклист:
01. I Didn't Know What Time It Was [04:20]
02. Emily [03:12]
03. Sweet Lorraine [04:05]
04. Two Sleepy People [05:37]
05. I'll Be Around [01:34]
06. It's Me, O Lord (Standin' in the Need of Prayer) [04:57]
07. Love Divine, All Loves Surpassing [03:22]
08. Memories of You [04:50]
09. Lord, I Want To Be a Christian [05:19]
 
EAC extraction logfile from 8. October 2008, 19:16 for CDHank Jones / Tiptoe Tapdance

Used drive : HL-DT-STDVDRAM GSA-4167B Adapter: 1 ID: 1Read mode : Secure with NO C2, accurate stream, disable cacheRead offset correction : 667Overread into Lead-In and Lead-Out : No

Used output format : Internal WAV Routines 44.100 Hz; 16 Bit; Stereo

Other options : Fill up missing offset samples with silence : Yes Delete leading and trailing silent blocks : No Installed external ASPI interface

Track 1 Filename D:\Hank Jones - Tiptoe Tapdance (1977)[FLAC]{OJC}\01 - I Didn't Know What Time It Was.wav

Pre-gap length 0:00:02.00

Peak level 99.8 % Test CRC AF3999DC Copy CRC AF3999DC Copy OK

Track 2 Filename D:\Hank Jones - Tiptoe Tapdance (1977)[FLAC]{OJC}\02 - Emily.wav

Pre-gap length 0:00:02.04

Peak level 76.3 % Test CRC 0E8909F6 Copy CRC 0E8909F6 Copy OK

Track 3 Filename D:\Hank Jones - Tiptoe Tapdance (1977)[FLAC]{OJC}\03 - Sweet Lorraine.wav

Pre-gap length 0:00:02.17

Peak level 79.4 % Test CRC FFB49A4A Copy CRC FFB49A4A Copy OK

Track 4 Filename D:\Hank Jones - Tiptoe Tapdance (1977)[FLAC]{OJC}\04 - Two Sleepy People.wav

Pre-gap length 0:00:01.24

Peak level 76.2 % Test CRC BBCDD161 Copy CRC BBCDD161 Copy OK

Track 5 Filename D:\Hank Jones - Tiptoe Tapdance (1977)[FLAC]{OJC}\05 - I'll Be Around.wav

Peak level 74.5 % Test CRC A48E49ED Copy CRC A48E49ED Copy OK

Track 6 Filename D:\Hank Jones - Tiptoe Tapdance (1977)[FLAC]{OJC}\06 - It's Me, O Lord (Standin' in the Need of Prayer).wav

Pre-gap length 0:00:02.15

Peak level 97.0 % Test CRC 85A47617 Copy CRC 85A47617 Copy OK

Track 7 Filename D:\Hank Jones - Tiptoe Tapdance (1977)[FLAC]{OJC}\07 - Love Divine, All Loves Surpassing.wav

Pre-gap length 0:00:01.19

Peak level 78.4 % Test CRC 9697AEB0 Copy CRC 9697AEB0 Copy OK

Track 8 Filename D:\Hank Jones - Tiptoe Tapdance (1977)[FLAC]{OJC}\08 - Memories of You.wav

Peak level 75.3 % Test CRC 335A1ED2 Copy CRC 335A1ED2 Copy OK

Track 9 Filename D:\Hank Jones - Tiptoe Tapdance (1977)[FLAC]{OJC}\09 - Lord, I Want To Be a Christian.wav

Pre-gap length 0:00:00.01

Peak level 91.6 % Test CRC 3A827BCC Copy CRC 3A827BCC Copy OK

No errors occured

End of status report
 
REM GENRE JazzREM DATE 1977REM DISCID 6B08C909REM COMMENT "ExactAudioCopy v0.95b2"PERFORMER "Hank Jones"TITLE "Tiptoe Tapdance"FILE "01 - I Didn't Know What Time It Was.wav" WAVE TRACK 01 AUDIO TITLE "I Didn't Know What Time It Was" PERFORMER "Hank Jones" INDEX 01 00:00:00 TRACK 02 AUDIO TITLE "Emily" PERFORMER "Hank Jones" INDEX 00 04:20:31FILE "02 - Emily.wav" WAVE INDEX 01 00:00:00 TRACK 03 AUDIO TITLE "Sweet Lorraine" PERFORMER "Hank Jones" INDEX 00 03:12:08FILE "03 - Sweet Lorraine.wav" WAVE INDEX 01 00:00:00 TRACK 04 AUDIO TITLE "Two Sleepy People" PERFORMER "Hank Jones" INDEX 00 04:05:41FILE "04 - Two Sleepy People.wav" WAVE INDEX 01 00:00:00FILE "05 - I'll Be Around.wav" WAVE TRACK 05 AUDIO TITLE "I'll Be Around" PERFORMER "Hank Jones" INDEX 01 00:00:00 TRACK 06 AUDIO TITLE "It's Me, O Lord (Standin' in the Need of Prayer)" PERFORMER "Hank Jones" INDEX 00 01:34:25FILE "06 - It's Me, O Lord (Standin' in the Need of Prayer).wav" WAVE INDEX 01 00:00:00 TRACK 07 AUDIO TITLE "Love Divine, All Loves Surpassing" PERFORMER "Hank Jones" INDEX 00 04:57:56FILE "07 - Love Divine, All Loves Surpassing.wav" WAVE INDEX 01 00:00:00FILE "08 - Memories of You.wav" WAVE TRACK 08 AUDIO TITLE "Memories of You" PERFORMER "Hank Jones" INDEX 01 00:00:00 TRACK 09 AUDIO TITLE "Lord, I Want To Be a Christian" PERFORMER "Hank Jones" INDEX 00 04:50:41FILE "09 - Lord, I Want To Be a Christian.wav" WAVE INDEX 01 00:00:00
 
-----------------------

DON'T MODIFY THIS FILE

-----------------------

PERFORMER: auCDtect Task Manager, ver. 1.5.1RC6 build 1.5.1.7Copyright (c) 2008-2010 y-soft. All rights reservedhttp://y-soft.org

ANALYZER: auCDtect: CD records authenticity detector, version 0.8.2Copyright (c) 2004 Oleg Berngardt. All rights reserved.Copyright (c) 2004 Alexander Djourik. All rights reserved.

FILE: 09 - Lord, I Want To Be a Christian.flac Size: 22033753 Hash: BE9A14D494360EFABA9A17BB60527E83 Accuracy: -m0 Conclusion: CDDA 100% Signature: D05137BF00F816FD3387181DC1E780B1F1B3D172FILE: 08 - Memories of You.flac Size: 20511925 Hash: 1A91C50CDEAFD90D07FDF6C177E97659 Accuracy: -m0 Conclusion: CDDA 100% Signature: F96FD0FE0458094ABDF412BB55352AD7D8EEBD3DFILE: 07 - Love Divine, All Loves Surpassing.flac Size: 13576663 Hash: C88925E69C98D80BEFA778864DD55E45 Accuracy: -m0 Conclusion: CDDA 100% Signature: B767C002B0BAF444B3DA9CA7B27FE20AABDEE456FILE: 06 - It's Me, O Lord (Standin' in the Need of Prayer).flac Size: 18448936 Hash: 96233575BDC7F6B83BD5574BF1428148 Accuracy: -m0 Conclusion: CDDA 100% Signature: D3E3F992F87B5AB4B4963790F6D0E18F242F9E28FILE: 05 - I'll Be Around.flac Size: 6082201 Hash: F51110693A24FFB6A3BE86BAF5E33284 Accuracy: -m0 Conclusion: CDDA 100% Signature: 2EC148A31772434201F19A10D80931499125AAAEFILE: 04 - Two Sleepy People.flac Size: 21502852 Hash: CE0FC0358BF8E579D619DAA9F1B62B10 Accuracy: -m0 Conclusion: CDDA 100% Signature: A1FF537D9C82A11D0EBC89C74009209D0A86233CFILE: 03 - Sweet Lorraine.flac Size: 16237057 Hash: 1A5C0599A482CF1C519636FD0375AE1F Accuracy: -m0 Conclusion: CDDA 100% Signature: 529B5C29202A1D875B1AD88983629056E7931F60FILE: 02 - Emily.flac Size: 13084356 Hash: F71BD306803B8F0CEF6F9306C54871CA Accuracy: -m0 Conclusion: CDDA 99% Signature: 06773900570792687AE02B7DA2AE170BA3F93D77FILE: 01 - I Didn't Know What Time It Was.flac Size: 17939871 Hash: 51A415C24C2B095CF12BEA1D23C39852 Accuracy: -m0 Conclusion: CDDA 100% Signature: 3219865EBB68E787A660DB2D754206E7CA1396CD


Трекер:  [ 29-Янв-2012 16:52 ]

  

Скачать .torrent

Размер .torrent файла 13 KB


Размер: 148 MB
Хэш (hash) релиза: f87db6f5c45e7dc3302031eb9854bea97322f6ec

Еще никто не оставлял запись к записи скачать торрент Hank Jones - Tiptoe Tapdance - . Будь первым!

!Обратная связь