Скачать через торрент музыку Eddie "Lockjaw" Davis - Very Saxy бесплатно без регистрации torrent

Если у вас наблюдаются проблемы со скриншотами, переходом по ссылками, скачиванием торрентов - проблемы в блокировщике рекламы AdBlock. #хорошегоДня!


Статистика раздачи
Размер:  284 MB   |    Зарегистрирован:  5 лет 8 месяцев   |    .torrent скачан:  18 раз   |   
Раздают:  1  
   
Загрузка...
 
Автор Сообщение

Umakiro

avatar Umakiro


Eddie "Lockjaw" Davis / Very Saxy (RVG)

Жанр: Hard Bop, Bop, Mainstream Jazz
Страна-производитель диска: USA
Год издания диска: 2008
Издатель (лейбл): Prestige Records
Номер по каталогу: PRCD-30649
Страна: USA New York, NY
Аудиокодек: FLAC (*.flac)
Тип рипа: tracks+.cue
Битрейт аудио: lossless
Продолжительность: 00:38:34
Источник (релизер): Oceandrop
Наличие сканов в содержимом раздачи: да
Треклист:
Tracklist:
01. Very Saxy [08:15]
02. Lester Leaps In [06:12]
03. Fourmost [05:19]
04. Foot Pattin' [08:49]
05. Light And Lovely [09:55]

Recorded at Van Gelder Studio, Hackensack, NJ; April 29, 1959
 
EAC extraction logfile from 4. July 2008, 12:29 for CDEddie 'Lockjaw' Davis, Buddy Tate, Coleman Hawkins, Arnett Cobb / Very Saxy

Used drive : HL-DT-STDVDRAM GSA-4167B Adapter: 1 ID: 1Read mode : Secure with NO C2, accurate stream, disable cacheRead offset correction : 667Overread into Lead-In and Lead-Out : No

Used output format : Internal WAV Routines 44.100 Hz; 16 Bit; Stereo

Other options : Fill up missing offset samples with silence : Yes Delete leading and trailing silent blocks : No Installed external ASPI interface

Track 1 Filename D:\Eddie Lockjaw Davis - Very Saxy (1959)[FLAC]{Prestige RVG}\01 - Very Saxy.wav

Pre-gap length 0:00:02.00

Peak level 97.9 % Track quality 100.0 % Test CRC CF65D22E Copy CRC CF65D22E Copy OK

Track 2 Filename D:\Eddie Lockjaw Davis - Very Saxy (1959)[FLAC]{Prestige RVG}\02 - Lester Leaps In.wav

Pre-gap length 0:00:02.67

Peak level 97.9 % Track quality 100.0 % Test CRC 01F70796 Copy CRC 01F70796 Copy OK

Track 3 Filename D:\Eddie Lockjaw Davis - Very Saxy (1959)[FLAC]{Prestige RVG}\03 - Fourmost.wav

Pre-gap length 0:00:03.19

Peak level 97.9 % Track quality 100.0 % Test CRC C05C7CCD Copy CRC C05C7CCD Copy OK

Track 4 Filename D:\Eddie Lockjaw Davis - Very Saxy (1959)[FLAC]{Prestige RVG}\04 - Foot Pattin'.wav

Pre-gap length 0:00:02.72

Peak level 97.9 % Track quality 100.0 % Test CRC 7A0D084A Copy CRC 7A0D084A Copy OK

Track 5 Filename D:\Eddie Lockjaw Davis - Very Saxy (1959)[FLAC]{Prestige RVG}\05 - Light And Lovely.wav

Pre-gap length 0:00:03.20

Peak level 97.9 % Track quality 100.0 % Test CRC 62CB0D60 Copy CRC 62CB0D60 Copy OK

No errors occured

End of status report
 
REM GENRE JazzREM DATE 1959REM DISCID 3D091605REM COMMENT "ExactAudioCopy v0.95b2"PERFORMER "Eddie 'Lockjaw' Davis, Buddy Tate, Coleman Hawkins, Arnett Cobb"TITLE "Very Saxy"FILE "01 - Very Saxy.wav" WAVE TRACK 01 AUDIO TITLE "Very Saxy" PERFORMER "Eddie 'Lockjaw' Davis, Buddy Tate, Coleman Hawkins, Arnett Cobb" INDEX 01 00:00:00 TRACK 02 AUDIO TITLE "Lester Leaps In" PERFORMER "Eddie 'Lockjaw' Davis, Buddy Tate, Coleman Hawkins, Arnett Cobb" INDEX 00 08:15:70FILE "02 - Lester Leaps In.wav" WAVE INDEX 01 00:00:00 TRACK 03 AUDIO TITLE "Fourmost" PERFORMER "Eddie 'Lockjaw' Davis, Buddy Tate, Coleman Hawkins, Arnett Cobb" INDEX 00 06:12:35FILE "03 - Fourmost.wav" WAVE INDEX 01 00:00:00 TRACK 04 AUDIO TITLE "Foot Pattin'" PERFORMER "Eddie 'Lockjaw' Davis, Buddy Tate, Coleman Hawkins, Arnett Cobb" INDEX 00 05:19:66FILE "04 - Foot Pattin'.wav" WAVE INDEX 01 00:00:00 TRACK 05 AUDIO TITLE "Light And Lovely" PERFORMER "Eddie 'Lockjaw' Davis, Buddy Tate, Coleman Hawkins, Arnett Cobb" INDEX 00 08:49:71FILE "05 - Light And Lovely.wav" WAVE INDEX 01 00:00:00
 
-----------------------

DON'T MODIFY THIS FILE

-----------------------

PERFORMER: auCDtect Task Manager, ver. 1.5.1RC6 build 1.5.1.7Copyright (c) 2008-2010 y-soft. All rights reservedhttp://y-soft.org

ANALYZER: auCDtect: CD records authenticity detector, version 0.8.2Copyright (c) 2004 Oleg Berngardt. All rights reserved.Copyright (c) 2004 Alexander Djourik. All rights reserved.

FILE: 05 - Light And Lovely.flac Size: 73160034 Hash: E5C7E7D2E344D5CF381E478173A5CD0D Accuracy: -m0 Conclusion: CDDA 100% Signature: 17EF9540F872C18FB3FF1409405FB21518591A41FILE: 04 - Foot Pattin'.flac Size: 68156929 Hash: 73C9D8D7D65AD2D34F154FE76095D7BA Accuracy: -m0 Conclusion: CDDA 100% Signature: 3A8B0BA38BE7FF12553E12A644DCCE7BDAA7D9A1FILE: 03 - Fourmost.flac Size: 41265221 Hash: E1023943547E89B15A0E4F0178D5A615 Accuracy: -m0 Conclusion: CDDA 100% Signature: 1ED8CC7C4D5C37EDE48306AA1ABE832B51F8A2E3FILE: 02 - Lester Leaps In.flac Size: 46064938 Hash: B270007D54C078DC65AF0FDBF3590E33 Accuracy: -m0 Conclusion: CDDA 100% Signature: 30C5B2C5F813A892A646BBD95D37BB2FE5023066FILE: 01 - Very Saxy.flac Size: 64040660 Hash: 8BAE1E5259D720AB9051E3C13713E889 Accuracy: -m0 Conclusion: CDDA 100% Signature: 17950D1679A4488A275AB6E1E88677ED1A77C421
Eddie "Lockjaw" Davis (tenor saxophone)
Buddy Tate (tenor saxophone)
Coleman Hawkins (tenor saxophone)
Arnett Cobb (tenor saxophone)
Shirley Scott (Hammond b-3 organ)
George Duvivier (bass instrument)
Arthur Edgehill (drum)


Трекер:  [ 29-Янв-2012 16:52 ]

  

Скачать .torrent

Размер .torrent файла 12 KB


Размер: 284 MB
Хэш (hash) релиза: 405af2261ea84efacab10d604a44d024aee39ec6

Еще никто не оставлял запись к записи скачать торрент Eddie "Lockjaw" Davis - Very Saxy . Будь первым!

!Обратная связь