Скачать через торрент музыку Pepper Adams - Critics Choice - 2005, FLAC бесплатно без регистрации torrent

Если у вас наблюдаются проблемы со скриншотами, переходом по ссылками, скачиванием торрентов - проблемы в блокировщике рекламы AdBlock. #хорошегоДня!


Статистика раздачи
Размер:  282 MB   |    Зарегистрирован:  5 лет 8 месяцев   |    .torrent скачан:  17 раз   |   
Раздают:  1  
   
Загрузка...
 
Автор Сообщение

Umakiro

avatar Umakiro


Pepper Adams - Critics' Choice

Жанр: Hard Bop
Страна-производитель диска: USA
Год издания диска: 2005
Издатель (лейбл): Mighty Quinn
Номер по каталогу: MQP1103
Страна: USA Highland Park, MI
Аудиокодек: FLAC (*.flac)
Тип рипа: tracks+.cue
Битрейт аудио: lossless
Продолжительность: 00:45:25
Источник (релизер): сеть
Наличие сканов в содержимом раздачи: да
01. Minor Mishap [06:24]
02. Blackout Blues [04:55]
03. High Step [08:39]
04. Zec [06:32]
05. Alone Together [05:47]
06. 50-21 [08:09]
07. Four Funky People [04:56]
Recording in 1957
 
Exact Audio Copy V1.0 beta 1 from 15. November 2010

EAC extraction logfile from 3. December 2011, 18:10

Pepper Adams / Critics Choice

Used drive : TSSTcorpCDDVDW SH-S203N Adapter: 0 ID: 2

Read mode : SecureUtilize accurate stream : YesDefeat audio cache : YesMake use of C2 pointers : No

Read offset correction : 6Overread into Lead-In and Lead-Out : NoFill up missing offset samples with silence : YesDelete leading and trailing silent blocks : NoNull samples used in CRC calculations : YesUsed interface : Installed external ASPI interfaceGap handling : Appended to previous track

Used output format : User Defined EncoderSelected bitrate : 768 kBit/sQuality : HighAdd ID3 tag : NoCommand line compressor : C:\Program Files\Exact Audio Copy-NEW\Flac\flac.exeAdditional command line options : -8 -V -T "ARTIST=%a" -T "TITLE=%t" -T "ALBUM=%g" -T "DATE=%y" -T "TRACKNUMBER=%n" -T "TOTALTRACKS=%x" -T "GENRE=%m" -T "ALBUMARTIST=%v" -T "ALBUM ARTIST=%v" -T "COMMENT=EAC V1.01b1, Secure Mode, Test & Copy, AccurateRip, FL

TOC of the extracted CD

Track | Start | Length | Start sector | End sector --------------------------------------------------------- 1 | 0:00.00 | 6:28.14 | 0 | 29113 2 | 6:28.14 | 4:58.63 | 29114 | 51526 3 | 11:27.02 | 8:44.08 | 51527 | 90834 4 | 20:11.10 | 6:35.18 | 90835 | 120477 5 | 26:46.28 | 5:51.59 | 120478 | 146861 6 | 32:38.12 | 8:12.64 | 146862 | 183825 7 | 40:51.01 | 4:56.24 | 183826 | 206049

Track 1

Filename J:\New Rips\Pepper Adams - Critics Choice (2005) [FLAC]\01 - Minor Mishap.wav

Pre-gap length 0:00:02.00

Peak level 94.6 % Extraction speed 4.1 X Track quality 99.9 % Test CRC 4534315E Copy CRC 4534315E Accurately ripped (confidence 1) [AFFF583A] Copy OK

Track 2

Filename J:\New Rips\Pepper Adams - Critics Choice (2005) [FLAC]\02 - Blackout Blues.wav

Pre-gap length 0:00:04.00

Peak level 97.3 % Extraction speed 4.4 X Track quality 99.9 % Test CRC 33B861FD Copy CRC 33B861FD Accurately ripped (confidence 1) [23298093] Copy OK

Track 3

Filename J:\New Rips\Pepper Adams - Critics Choice (2005) [FLAC]\03 - High Step.wav

Pre-gap length 0:00:03.00

Peak level 97.3 % Extraction speed 6.2 X Track quality 100.0 % Test CRC 62D87B5D Copy CRC 62D87B5D Accurately ripped (confidence 1) [28068523] Copy OK

Track 4

Filename J:\New Rips\Pepper Adams - Critics Choice (2005) [FLAC]\04 - Zec.wav

Pre-gap length 0:00:05.00

Peak level 97.3 % Extraction speed 6.8 X Track quality 100.0 % Test CRC 07390896 Copy CRC 07390896 Accurately ripped (confidence 1) [E7BDCA78] Copy OK

Track 5

Filename J:\New Rips\Pepper Adams - Critics Choice (2005) [FLAC]\05 - Alone Together.wav

Pre-gap length 0:00:03.00

Peak level 97.3 % Extraction speed 7.2 X Track quality 100.0 % Test CRC 4EFE7406 Copy CRC 4EFE7406 Accurately ripped (confidence 1) [AA08B9F5] Copy OK

Track 6

Filename J:\New Rips\Pepper Adams - Critics Choice (2005) [FLAC]\06 - 50-21.wav

Pre-gap length 0:00:04.00

Peak level 97.3 % Extraction speed 7.9 X Track quality 100.0 % Test CRC 46573A6B Copy CRC 46573A6B Accurately ripped (confidence 1) [A1E065CF] Copy OK

Track 7

Filename J:\New Rips\Pepper Adams - Critics Choice (2005) [FLAC]\07 - Four Funky People.wav

Pre-gap length 0:00:03.00

Peak level 97.3 % Extraction speed 7.9 X Track quality 100.0 % Test CRC 588422EE Copy CRC 588422EE Accurately ripped (confidence 1) [19752A3C] Copy OK

All tracks accurately ripped

No errors occurred

End of status report

==== Log checksum FFCDF15F89D2C5533E50CE9FC2AE831BAD977470CBA8624AD093598AE6126684 ====
 
REM GENRE JazzREM DATE 2005REM DISCID 590ABB07REM COMMENT "ExactAudioCopy v1.0b1"PERFORMER "Pepper Adams"TITLE "Critics Choice"FILE "01 - Minor Mishap.flac" WAVE TRACK 01 AUDIO TITLE "Minor Mishap" PERFORMER "Pepper Adams" INDEX 01 00:00:00 TRACK 02 AUDIO TITLE "Blackout Blues" PERFORMER "Pepper Adams" INDEX 00 06:24:14FILE "02 - Blackout Blues.flac" WAVE INDEX 01 00:00:00 TRACK 03 AUDIO TITLE "High Step" PERFORMER "Pepper Adams" INDEX 00 04:55:63FILE "03 - High Step.flac" WAVE INDEX 01 00:00:00 TRACK 04 AUDIO TITLE "Zec" PERFORMER "Pepper Adams" INDEX 00 08:39:08FILE "04 - Zec.flac" WAVE INDEX 01 00:00:00 TRACK 05 AUDIO TITLE "Alone Together" PERFORMER "Pepper Adams" INDEX 00 06:32:18FILE "05 - Alone Together.flac" WAVE INDEX 01 00:00:00 TRACK 06 AUDIO TITLE "50-21" PERFORMER "Pepper Adams" INDEX 00 05:47:59FILE "06 - 50-21.flac" WAVE INDEX 01 00:00:00 TRACK 07 AUDIO TITLE "Four Funky People" PERFORMER "Pepper Adams" INDEX 00 08:09:64FILE "07 - Four Funky People.flac" WAVE INDEX 01 00:00:00
 
-----------------------

DON'T MODIFY THIS FILE

-----------------------

PERFORMER: auCDtect Task Manager, ver. 1.5.1RC6 build 1.5.1.7Copyright (c) 2008-2010 y-soft. All rights reservedhttp://y-soft.org

ANALYZER: auCDtect: CD records authenticity detector, version 0.8.2Copyright (c) 2004 Oleg Berngardt. All rights reserved.Copyright (c) 2004 Alexander Djourik. All rights reserved.

FILE: 07 - Four Funky People.flac Size: 29375794 Hash: 56944D63EB56C531279915B43C6E1681 Accuracy: -m0 Conclusion: CDDA 100% Signature: D6CE38B332BFDB4FFF0DDD847E4500D166C95628FILE: 06 - 50-21.flac Size: 51434233 Hash: D8ED4E6FE7D65CB4006D9F3ADE330D62 Accuracy: -m0 Conclusion: CDDA 100% Signature: 991FD5A4EABAE53E8AEBE9696174157A7DC3FED6FILE: 05 - Alone Together.flac Size: 33110439 Hash: A4A5E0DBB1B14E231677FA48580AA165 Accuracy: -m0 Conclusion: CDDA 100% Signature: 72DEB5D7C9B2A8FA91FCF11170B5A22F3CDFCADDFILE: 04 - Zec.flac Size: 46142225 Hash: 17F00D234305EC81492915E596D23E33 Accuracy: -m0 Conclusion: MPEG 95% Signature: C3252FA0BE73C2F66CBC51FD2713F5603EE5D86DFILE: 03 - High Step.flac Size: 56776300 Hash: 1BDC941320C2EC4B7BFE21CC26FFB6F0 Accuracy: -m0 Conclusion: CDDA 100% Signature: 981E4D71E3BAA6CF51769D52D11DE0E6C68DCCF7FILE: 02 - Blackout Blues.flac Size: 30777003 Hash: AE7EFFE79F546B230049D19C574A1BA1 Accuracy: -m0 Conclusion: CDDA 100% Signature: F58ECC56B7C77B66AE643CD82C20C6BB17F26CD3FILE: 01 - Minor Mishap.flac Size: 45050006 Hash: 6CB27ED51684A8A3B68894AB44DBDA34 Accuracy: -m0 Conclusion: MPEG 95% Signature: 1794B3DEC1EB943E3F876CF7DA2DC669D943E514
Pepper Adams, baritone sax
Lee Katzman, trumpet
Jimmy Rowles, piano
Doug Watkins, bass
Mel Lewis, drums


Трекер:  [ 29-Янв-2012 16:51 ]

  

Скачать .torrent

Размер .torrent файла 12 KB


Размер: 282 MB
Хэш (hash) релиза: 981aebe84caef62dcfd8115e5d4798db0161f3db

Еще никто не оставлял запись к записи скачать торрент Pepper Adams - Critics Choice - 2005, FLAC . Будь первым!

!Обратная связь