Скачать через торрент музыку Don Braden Septet - After Dark - 1994, FLAC бесплатно без регистрации torrent

Если у вас наблюдаются проблемы со скриншотами, переходом по ссылками, скачиванием торрентов - проблемы в блокировщике рекламы AdBlock. #хорошегоДня!


Статистика раздачи
Размер:  391 MB   |    Зарегистрирован:  5 лет 8 месяцев   |    .torrent скачан:  21 раз   |   
Раздают:  1  
   
Загрузка...
 
Автор Сообщение

Umakiro

avatar Umakiro


Don Braden Septet / After Dark

Жанр: Hard Bop, Post-Bop, Saxophone
Год издания диска: 1994
Издатель (лейбл): Criss Cross Jazz
Номер по каталогу: 1081 CD
Страна: USA Cincinnati, OH
Аудиокодек: FLAC (*.flac)
Тип рипа: tracks+.cue
Битрейт аудио: lossless
Продолжительность: 01:04:57
Источник (релизер): obelix
Наличие сканов в содержимом раздачи: нет
Треклист:
01. After Dark [06:43]
02. Night [06:46]
03. You and The Night And The Music [06:38]
04. Creepin' [07:15]
05. R.E.M [05:54]
06. Stars Fell On Alabama [08:02]
07. Monk's Dream [07:56]
08. Dawn [06:04]
09. The Hang [09:35]
 
Exact Audio Copy V0.99 prebeta 5 from 4. May 2009

EAC extraction logfile from 22. February 2010, 13:14

Don Braden Septet / After Dark

Used drive : TSSTcorpCDDVDW SH-S222A Adapter: 3 ID: 0

Read mode : SecureUtilize accurate stream : YesDefeat audio cache : YesMake use of C2 pointers : No

Read offset correction : 6Overread into Lead-In and Lead-Out : NoFill up missing offset samples with silence : YesDelete leading and trailing silent blocks : NoNull samples used in CRC calculations : YesUsed interface : Installed external ASPI interfaceGap handling : Appended to previous track

Used output format : User Defined EncoderSelected bitrate : 1024 kBit/sQuality : HighAdd ID3 tag : NoCommand line compressor : C:\Program Files\Exact Audio Copy\Flac\flac.exeAdditional command line options : -3 -V -T "ARTIST=%a" -T "TITLE=%t" -T "ALBUM=%g" -T "DATE=%y" -T "TRACKNUMBER=%n" -T "GENRE=%m" -T "COMMENT=EAC FLAC -3" %s

TOC of the extracted CD

Track | Start | Length | Start sector | End sector --------------------------------------------------------- 1 | 0:00.00 | 6:47.50 | 0 | 30574 2 | 6:47.50 | 6:50.33 | 30575 | 61357 3 | 13:38.08 | 6:42.15 | 61358 | 91522 4 | 20:20.23 | 7:19.42 | 91523 | 124489 5 | 27:39.65 | 5:58.35 | 124490 | 151374 6 | 33:38.25 | 8:06.45 | 151375 | 187869 7 | 41:44.70 | 7:59.63 | 187870 | 223857 8 | 49:44.58 | 6:08.17 | 223858 | 251474 9 | 55:53.00 | 9:35.15 | 251475 | 294614

Track 1

Filename C:\My Rips\1081 Don Braden - 1994 - After Dark [FLAC]\01 - After Dark.wav

Pre-gap length 0:00:02.00

Peak level 94.0 % Track quality 100.0 % Test CRC 6F69BCBC Copy CRC 6F69BCBC Cannot be verified as accurate (confidence 1) [35B58700], AccurateRip returned [C4E28CF9] Copy OK

Track 2

Filename C:\My Rips\1081 Don Braden - 1994 - After Dark [FLAC]\02 - Night.wav

Pre-gap length 0:00:03.82

Peak level 71.7 % Track quality 99.9 % Test CRC D09CDB44 Copy CRC D09CDB44 Cannot be verified as accurate (confidence 1) [76FEA8DC], AccurateRip returned [D5C53705] Copy OK

Track 3

Filename C:\My Rips\1081 Don Braden - 1994 - After Dark [FLAC]\03 - You and The Night And The Music.wav

Pre-gap length 0:00:03.84

Peak level 92.7 % Track quality 100.0 % Test CRC 050A52E6 Copy CRC 050A52E6 Cannot be verified as accurate (confidence 1) [E680331E], AccurateRip returned [5B5626AA] Copy OK

Track 4

Filename C:\My Rips\1081 Don Braden - 1994 - After Dark [FLAC]\04 - Creepin'.wav

Pre-gap length 0:00:03.84

Peak level 93.1 % Track quality 100.0 % Test CRC 516BC86B Copy CRC 516BC86B Cannot be verified as accurate (confidence 1) [359E91C7], AccurateRip returned [6D59DA25] Copy OK

Track 5

Filename C:\My Rips\1081 Don Braden - 1994 - After Dark [FLAC]\05 - R.E.M.wav

Pre-gap length 0:00:03.82

Peak level 93.4 % Track quality 100.0 % Test CRC E533F23F Copy CRC E533F23F Cannot be verified as accurate (confidence 1) [C52F9227], AccurateRip returned [35730D08] Copy OK

Track 6

Filename C:\My Rips\1081 Don Braden - 1994 - After Dark [FLAC]\06 - Stars Fell On Alabama.wav

Pre-gap length 0:00:03.82

Peak level 67.3 % Track quality 100.0 % Test CRC 4B8441E0 Copy CRC 4B8441E0 Cannot be verified as accurate (confidence 1) [ADEB6A4F], AccurateRip returned [078F3A39] Copy OK

Track 7

Filename C:\My Rips\1081 Don Braden - 1994 - After Dark [FLAC]\07 - Monk's Dream.wav

Pre-gap length 0:00:03.82

Peak level 95.8 % Track quality 99.9 % Test CRC 78914CF5 Copy CRC 78914CF5 Cannot be verified as accurate (confidence 1) [5DE7093C], AccurateRip returned [D43DE346] Copy OK

Track 8

Filename C:\My Rips\1081 Don Braden - 1994 - After Dark [FLAC]\08 - Dawn.wav

Pre-gap length 0:00:03.84

Peak level 89.4 % Track quality 100.0 % Test CRC 7C402D6A Copy CRC 7C402D6A Cannot be verified as accurate (confidence 1) [C897267B], AccurateRip returned [28955D92] Copy OK

Track 9

Filename C:\My Rips\1081 Don Braden - 1994 - After Dark [FLAC]\09 - The Hang.wav

Pre-gap length 0:00:03.82

Peak level 93.1 % Track quality 100.0 % Test CRC 85BD495F Copy CRC 85BD495F Cannot be verified as accurate (confidence 1) [6D5BFDE7], AccurateRip returned [115F537C] Copy OK

No tracks could be verified as accurateYou may have a different pressing from the one(s) in the database

No errors occurred

End of status report
 
REM GENRE JazzREM DATE 1993REM DISCID 680F5809REM COMMENT "ExactAudioCopy v0.99pb5"PERFORMER "Don Braden Septet"TITLE "After Dark"FILE "01 - After Dark.flac" WAVE TRACK 01 AUDIO TITLE "After Dark" PERFORMER "Don Braden Septet" INDEX 01 00:00:00 TRACK 02 AUDIO TITLE "Night" PERFORMER "Don Braden Septet" INDEX 00 06:43:63FILE "02 - Night.flac" WAVE INDEX 01 00:00:00 TRACK 03 AUDIO TITLE "You and The Night And The Music" PERFORMER "Don Braden Septet" INDEX 00 06:46:45FILE "03 - You and The Night And The Music.flac" WAVE INDEX 01 00:00:00 TRACK 04 AUDIO TITLE "Creepin'" PERFORMER "Don Braden Septet" INDEX 00 06:38:27FILE "04 - Creepin'.flac" WAVE INDEX 01 00:00:00 TRACK 05 AUDIO TITLE "R.E.M" PERFORMER "Don Braden Septet" INDEX 00 07:15:55FILE "05 - R.E.M.flac" WAVE INDEX 01 00:00:00 TRACK 06 AUDIO TITLE "Stars Fell On Alabama" PERFORMER "Don Braden Septet" INDEX 00 05:54:48FILE "06 - Stars Fell On Alabama.flac" WAVE INDEX 01 00:00:00 TRACK 07 AUDIO TITLE "Monk's Dream" PERFORMER "Don Braden Septet" INDEX 00 08:02:58FILE "07 - Monk's Dream.flac" WAVE INDEX 01 00:00:00 TRACK 08 AUDIO TITLE "Dawn" PERFORMER "Don Braden Septet" INDEX 00 07:56:00FILE "08 - Dawn.flac" WAVE INDEX 01 00:00:00 TRACK 09 AUDIO TITLE "The Hang" PERFORMER "Don Braden Septet" INDEX 00 06:04:30FILE "09 - The Hang.flac" WAVE INDEX 01 00:00:00
 
-----------------------

DON'T MODIFY THIS FILE

-----------------------

PERFORMER: auCDtect Task Manager, ver. 1.5.1RC6 build 1.5.1.7Copyright (c) 2008-2010 y-soft. All rights reservedhttp://y-soft.org

ANALYZER: auCDtect: CD records authenticity detector, version 0.8.2Copyright (c) 2004 Oleg Berngardt. All rights reserved.Copyright (c) 2004 Alexander Djourik. All rights reserved.

FILE: 09 - The Hang.flac Size: 61902843 Hash: FB82705CA07147092506A18B2A567704 Accuracy: -m0 Conclusion: CDDA 99% Signature: 2DA45E490DC4D26FB1E308A9BF14ABDE9D1BF124FILE: 08 - Dawn.flac Size: 38492944 Hash: F2C63031E6F6DB654C6E0E168C5C9844 Accuracy: -m0 Conclusion: CDDA 100% Signature: E6D1C32F10E00C64642C8D7D5A15F2781CAFCB03FILE: 07 - Monk's Dream.flac Size: 50925322 Hash: EA6DFEADB1E058624284602930961DF9 Accuracy: -m0 Conclusion: CDDA 100% Signature: 8EECF2865E0635C1DDEB9949CA1E83F6F30B53D2FILE: 06 - Stars Fell On Alabama.flac Size: 44301710 Hash: 73DECAA5B953CB4417EB7B4E2241B0FC Accuracy: -m0 Conclusion: CDDA 100% Signature: 967D43CD7B0D14E5AEB8DC0E37650D1C81089308FILE: 05 - R.E.M.flac Size: 40260021 Hash: 683616CA8BA16CF5069C9442789BF251 Accuracy: -m0 Conclusion: CDDA 100% Signature: A4B4D1F87B2EE284738F2B9F8AE294195964B34CFILE: 04 - Creepin'.flac Size: 43977448 Hash: 6C7EF6153AA9D93328672A01A86F8BDF Accuracy: -m0 Conclusion: CDDA 100% Signature: C49ED0173FF5BB434ECA43FB80F2152F22F7125FFILE: 03 - You and The Night And The Music.flac Size: 44199839 Hash: 93E68B8CAB7CCF985D292E5BA2BA04BF Accuracy: -m0 Conclusion: CDDA 100% Signature: 1B5DA18563B432D3CCFF074EF3C5F0C840B024DCFILE: 02 - Night.flac Size: 40173738 Hash: 5C5DEBC6908ED7F87B81CF11A45BFDCC Accuracy: -m0 Conclusion: CDDA 100% Signature: 08E87688CC05F14211989549221CDF9689E9606AFILE: 01 - After Dark.flac Size: 45648492 Hash: 62B751377CAD4B223B2202495B7D4DEE Accuracy: -m0 Conclusion: CDDA 100% Signature: 4EDC647467176E883EA233DDDBC917A9C65A394E
Don Braden (tenor saxophone, flute)
Steve Wilson (alto saxophone)
Scott Wendholt (trumpet, flugelhorn)
Noah Bless (trombone)
Darrell Grant (piano)
Christian McBride (bass)
Carl Allen (drums)


Трекер:  [ 29-Янв-2012 16:50 ]

  

Скачать .torrent

Размер .torrent файла 16 KB


Размер: 391 MB
Хэш (hash) релиза: d38d29e57d8aca3ec5a65a9f47afedbbfbc13f70

Еще никто не оставлял запись к записи скачать торрент Don Braden Septet - After Dark - 1994, FLAC . Будь первым!

!Обратная связь