Скачать через торрент музыку Duke Pearson - Angel Eyes - 2009, APE бесплатно без регистрации torrent

Если у вас наблюдаются проблемы со скриншотами, переходом по ссылками, скачиванием торрентов - проблемы в блокировщике рекламы AdBlock. #хорошегоДня!


Статистика раздачи
Размер:  312 MB   |    Зарегистрирован:  5 лет 8 месяцев   |    .torrent скачан:  21 раз   |   
Раздают:  1  
   
Загрузка...
 
Автор Сообщение

Umakiro

avatar Umakiro


Duke Pearson / Angel Eyes

Жанр: Hard Bop
Страна-производитель диска: Japan
Год издания диска: 2009
Издатель (лейбл): MUZAC. INC
Номер по каталогу: MZCB-1184
Страна: USA Atlanta, GA
Аудиокодек: APE (*.ape)
Тип рипа: image+.cue
Битрейт аудио: lossless
Продолжительность: 00:48:24
Источник (релизер): malieff
Наличие сканов в содержимом раздачи: да
Треклист:
01. Bag's Groove [05:01]
02. Le Carrousel [04:51]
03. Angel Eyes [02:41]
04. I'm An Old Cow Hand [04:45]
05. Jeannine [05:31]
06. Say You're Mine [05:27]
07. Exodus [05:48]
08. Le Carrousel(Alt.Take) [04:16]
09. I'm An Old Cow Hand(Alt.Take) [04:32]
10. Say You're Mine(Alt.Take) [05:29]
 
Exact Audio Copy V1.0 beta 2 from 29. April 2011

EAC extraction logfile from 29. November 2011, 20:15

Duke Pearson / Angel Eyes

Used drive : Optiarc DVD RW AD-7243S Adapter: 4 ID: 0

Read mode : SecureUtilize accurate stream : YesDefeat audio cache : YesMake use of C2 pointers : No

Read offset correction : 48Overread into Lead-In and Lead-Out : NoFill up missing offset samples with silence : YesDelete leading and trailing silent blocks : NoNull samples used in CRC calculations : YesUsed interface : Native Win32 interface for Win NT & 2000

Used output format : Internal WAV RoutinesSample format : 44.100 Hz; 16 Bit; Stereo

TOC of the extracted CD

Track | Start | Length | Start sector | End sector --------------------------------------------------------- 1 | 0:00.00 | 5:01.51 | 0 | 22625 2 | 5:01.51 | 4:51.26 | 22626 | 44476 3 | 9:53.02 | 2:41.15 | 44477 | 56566 4 | 12:34.17 | 4:45.60 | 56567 | 78001 5 | 17:20.02 | 5:31.47 | 78002 | 102873 6 | 22:51.49 | 5:27.00 | 102874 | 127398 7 | 28:18.49 | 5:48.26 | 127399 | 153524 8 | 34:07.00 | 4:16.53 | 153525 | 172777 9 | 38:23.53 | 4:32.09 | 172778 | 193186 10 | 42:55.62 | 5:29.09 | 193187 | 217870

Range status and errors

Selected range

Filename E:\1\Duke Pearson - Angel Eyes.wav

Peak level 96.4 % Extraction speed 4.0 X Range quality 100.0 % Copy CRC 1E813C26 Copy OK

No errors occurred

AccurateRip summary

Track 1 not present in databaseTrack 2 not present in databaseTrack 3 not present in databaseTrack 4 not present in databaseTrack 5 not present in databaseTrack 6 not present in databaseTrack 7 not present in databaseTrack 8 not present in databaseTrack 9 not present in databaseTrack 10 not present in database

None of the tracks are present in the AccurateRip database

End of status report
 
REM ACCURATERIPID 0011d79a-008fabe4-780b580aREM GENRE "Jazz"REM DATE 1961REM DISCID 780B580AREM COMMENT "ExactAudioCopy v1.0b2"PERFORMER "Duke Pearson"TITLE "Angel Eyes"FILE "Duke Pearson - Angel Eyes.ape" WAVE TRACK 01 AUDIO TITLE "Bag's Groove" PERFORMER "Duke Pearson" INDEX 01 00:00:00 TRACK 02 AUDIO TITLE "Le Carrousel" PERFORMER "Duke Pearson" INDEX 01 05:01:51 TRACK 03 AUDIO TITLE "Angel Eyes" PERFORMER "Duke Pearson" INDEX 01 09:53:02 TRACK 04 AUDIO TITLE "I'm An Old Cow Hand" PERFORMER "Duke Pearson" INDEX 01 12:34:17 TRACK 05 AUDIO TITLE "Jeannine" PERFORMER "Duke Pearson" INDEX 01 17:20:02 TRACK 06 AUDIO TITLE "Say You're Mine" PERFORMER "Duke Pearson" INDEX 01 22:51:49 TRACK 07 AUDIO TITLE "Exodus" PERFORMER "Duke Pearson" INDEX 01 28:18:49 TRACK 08 AUDIO TITLE "Le Carrousel(Alt.Take)" PERFORMER "Duke Pearson" INDEX 01 34:07:00 TRACK 09 AUDIO TITLE "I'm An Old Cow Hand(Alt.Take)" PERFORMER "Duke Pearson" INDEX 01 38:23:53 TRACK 10 AUDIO TITLE "Say You're Mine(Alt.Take)" PERFORMER "Duke Pearson" INDEX 01 42:55:62
 
-----------------------

DON'T MODIFY THIS FILE

-----------------------

PERFORMER: auCDtect Task Manager, ver. 1.5.1RC3 build 1.5.1.4Copyright (c) 2008-2010 y-soft. All rights reservedhttp://y-soft.org

ANALYZER: auCDtect: CD records authenticity detector, version 0.8.2Copyright (c) 2004 Oleg Berngardt. All rights reserved.Copyright (c) 2004 Alexander Djourik. All rights reserved.

FILE: Duke Pearson - Angel Eyes.ape Size: 314618605 Hash: 7C394397587F4AA11995E41F4E0A8C8D Accuracy: -m0 Conclusion: CDDA 100% Signature: 835F767C976BB0A53F13979B7114A45E309E1541
Duke Pearson - piano
Bob Cranshaw (track 3), Thomas Howard (tracks 1, 2 & 4-7) - bass
Lex Humphries (tracks 1, 2 & 4-7), Walter Perkins (track 3) - drums


Трекер:  [ 29-Янв-2012 16:50 ]

  

Скачать .torrent

Размер .torrent файла 13 KB


Размер: 312 MB
Хэш (hash) релиза: 7d6f7f55b48b4648b0622c52f79cc3d1fec39524

Еще никто не оставлял запись к записи скачать торрент Duke Pearson - Angel Eyes - 2009, APE . Будь первым!

!Обратная связь