Скачать через торрент музыку Sonny Phillips - My Black Flower - 1999, FLAC бесплатно без регистрации torrent

Если у вас наблюдаются проблемы со скриншотами, переходом по ссылками, скачиванием торрентов - проблемы в блокировщике рекламы AdBlock. #хорошегоДня!


Статистика раздачи
Размер:  206 MB   |    Зарегистрирован:  5 лет 8 месяцев   |    .torrent скачан:  21 раз   |   
Раздают:  1  
   
Загрузка...
 
Автор Сообщение

Umakiro

avatar Umakiro


Sonny Phillips / My Black Flower

Жанр: Soul Jazz
Страна-производитель диска: USA
Год издания диска: 1999
Издатель (лейбл): 32 Jazz
Номер по каталогу: 32141
Страна: USA Birmingham, AL
Аудиокодек: FLAC (*.flac)
Тип рипа: tracks+.cue
Битрейт аудио: lossless
Продолжительность: 00:34:27
Источник (релизер): сеть
Наличие сканов в содержимом раздачи: да
Треклист:
01. Goin' Home [06:36]
02. Salaam 7 [06:22]
03. My Black Flower [05:02]
04. Me And Me Brudder [05:42]
05. You Make Me Feel So Young [05:27]
06. Jalal [05:15]
 
Exact Audio Copy V1.0 beta 1 from 15. November 2010

EAC extraction logfile from 25. August 2011, 23:41

Sonny Phillips / My Black Flower

Used drive : TSSTcorpCDDVDW SH-S203N Adapter: 0 ID: 2

Read mode : SecureUtilize accurate stream : YesDefeat audio cache : YesMake use of C2 pointers : No

Read offset correction : 6Overread into Lead-In and Lead-Out : NoFill up missing offset samples with silence : YesDelete leading and trailing silent blocks : NoNull samples used in CRC calculations : YesUsed interface : Installed external ASPI interfaceGap handling : Appended to previous track

Used output format : User Defined EncoderSelected bitrate : 768 kBit/sQuality : HighAdd ID3 tag : NoCommand line compressor : C:\Program Files\Exact Audio Copy-NEW\Flac\flac.exeAdditional command line options : -8 -V -T "ARTIST=%a" -T "TITLE=%t" -T "ALBUM=%g" -T "DATE=%y" -T "TRACKNUMBER=%n" -T "TOTALTRACKS=%x" -T "GENRE=%m" -T "ALBUMARTIST=%v" -T "ALBUM ARTIST=%v" -T "COMMENT=EAC V1.01b1, Secure Mode, Test & Copy, AccurateRip, FL

TOC of the extracted CD

Track | Start | Length | Start sector | End sector --------------------------------------------------------- 1 | 0:00.00 | 6:39.45 | 0 | 29969 2 | 6:39.45 | 6:25.37 | 29970 | 58881 3 | 13:05.07 | 5:05.70 | 58882 | 81826 4 | 18:11.02 | 5:45.48 | 81827 | 107749 5 | 23:56.50 | 5:30.07 | 107750 | 132506 6 | 29:26.57 | 5:15.68 | 132507 | 156199

Track 1

Filename J:\New Rips\Sonny Phillips - My Black Flower (1999) [FLAC]\01 - Goin' Home.wav

Pre-gap length 0:00:02.00

Peak level 89.4 % Extraction speed 1.8 X Track quality 100.0 % Test CRC CA1DBF8A Copy CRC CA1DBF8A Accurately ripped (confidence 2) [FBAA0A32] Copy OK

Track 2

Filename J:\New Rips\Sonny Phillips - My Black Flower (1999) [FLAC]\02 - Salaam 7.wav

Pre-gap length 0:00:03.00

Peak level 86.2 % Extraction speed 1.9 X Track quality 99.9 % Test CRC DDE32903 Copy CRC DDE32903 Accurately ripped (confidence 2) [3D07F16C] Copy OK

Track 3

Filename J:\New Rips\Sonny Phillips - My Black Flower (1999) [FLAC]\03 - My Black Flower.wav

Pre-gap length 0:00:03.00

Peak level 65.9 % Extraction speed 2.3 X Track quality 100.0 % Test CRC 5BDEB423 Copy CRC 5BDEB423 Accurately ripped (confidence 2) [5D65F1D3] Copy OK

Track 4

Filename J:\New Rips\Sonny Phillips - My Black Flower (1999) [FLAC]\04 - Me And Me Brudder.wav

Pre-gap length 0:00:03.00

Peak level 89.9 % Extraction speed 2.5 X Track quality 100.0 % Test CRC B5764426 Copy CRC B5764426 Accurately ripped (confidence 2) [C2B2CAEE] Copy OK

Track 5

Filename J:\New Rips\Sonny Phillips - My Black Flower (1999) [FLAC]\05 - You Make Me Feel So Young.wav

Pre-gap length 0:00:03.00

Peak level 94.2 % Extraction speed 2.7 X Track quality 100.0 % Test CRC 13A76CC8 Copy CRC 13A76CC8 Accurately ripped (confidence 2) [7751C8B0] Copy OK

Track 6

Filename J:\New Rips\Sonny Phillips - My Black Flower (1999) [FLAC]\06 - Jalal.wav

Pre-gap length 0:00:03.00

Peak level 94.9 % Extraction speed 2.9 X Track quality 100.0 % Test CRC CE7D8B32 Copy CRC CE7D8B32 Accurately ripped (confidence 2) [8F116CEA] Copy OK

All tracks accurately ripped

No errors occurred

End of status report

==== Log checksum 4326F2277420B615FA4E0E9173CE32F617A7706F14EC3B9BD4BB8FA585BC360C ====
 
REM GENRE "Jazz (Soul)"REM DATE 1999REM DISCID 50082206REM COMMENT "ExactAudioCopy v1.0b1"PERFORMER "Sonny Phillips"TITLE "My Black Flower"FILE "01 - Goin' Home.flac" WAVE TRACK 01 AUDIO TITLE "Goin' Home" PERFORMER "Sonny Phillips" FLAGS DCP INDEX 01 00:00:00 TRACK 02 AUDIO TITLE "Salaam 7" PERFORMER "Sonny Phillips" FLAGS DCP INDEX 00 06:36:45FILE "02 - Salaam 7.flac" WAVE INDEX 01 00:00:00 TRACK 03 AUDIO TITLE "My Black Flower" PERFORMER "Sonny Phillips" FLAGS DCP INDEX 00 06:22:37FILE "03 - My Black Flower.flac" WAVE INDEX 01 00:00:00 TRACK 04 AUDIO TITLE "Me And Me Brudder" PERFORMER "Sonny Phillips" FLAGS DCP INDEX 00 05:02:70FILE "04 - Me And Me Brudder.flac" WAVE INDEX 01 00:00:00 TRACK 05 AUDIO TITLE "You Make Me Feel So Young" PERFORMER "Sonny Phillips" FLAGS DCP INDEX 00 05:42:48FILE "05 - You Make Me Feel So Young.flac" WAVE INDEX 01 00:00:00 TRACK 06 AUDIO TITLE "Jalal" PERFORMER "Sonny Phillips" FLAGS DCP INDEX 00 05:27:07FILE "06 - Jalal.flac" WAVE INDEX 01 00:00:00
 
-----------------------

DON'T MODIFY THIS FILE

-----------------------

PERFORMER: auCDtect Task Manager, ver. 1.5.1RC6 build 1.5.1.7Copyright (c) 2008-2010 y-soft. All rights reservedhttp://y-soft.org

ANALYZER: auCDtect: CD records authenticity detector, version 0.8.2Copyright (c) 2004 Oleg Berngardt. All rights reserved.Copyright (c) 2004 Alexander Djourik. All rights reserved.

FILE: 06 - Jalal.flac Size: 37262569 Hash: F4FC7420DD8CFEBC02F525DBCC469711 Accuracy: -m0 Conclusion: CDDA 100% Signature: 5D06B51FA0BC9A43C7748E33A0EE08C15C486C07FILE: 05 - You Make Me Feel So Young.flac Size: 32382665 Hash: D0FA4BD962466B4BB282D049038E368C Accuracy: -m0 Conclusion: CDDA 100% Signature: FA7386E8806FF40B99B9F5DD1E314C5728B1C7E0FILE: 04 - Me And Me Brudder.flac Size: 38615711 Hash: D551B3FE32E148271D28F90097014C08 Accuracy: -m0 Conclusion: CDDA 100% Signature: 82D801F62F4399C4C00DFD84D1ADD187BEC072A2FILE: 03 - My Black Flower.flac Size: 23241262 Hash: 6D012A89C2E70C0C995AC70703661B0D Accuracy: -m0 Conclusion: CDDA 100% Signature: 0865491B380EBEC500E9D7E0603C633688858621FILE: 02 - Salaam 7.flac Size: 38747012 Hash: 69FD3F90C02BD79A2E5AA5F2310C06CC Accuracy: -m0 Conclusion: CDDA 100% Signature: 6F352F619C58E3ED022432C5E8F069D9467CB8EDFILE: 01 - Goin' Home.flac Size: 39998156 Hash: 414A337A273D243F35AC44893F5DCC2B Accuracy: -m0 Conclusion: CDDA 100% Signature: 7F4F164DF97A30504CFC8D6B956727D16AAB0A1D
Sonny Phillips (piano, organ);
Jimmy Ponder (guitar);
Galen Abdur-Razzaq, Gale Robinson, Glen Robinson (flute);
Frank Jones , Frankie Jones, Qaadir Almubeen Muhammad, Ben Dixon (drums);
Ralph Dorsey (percussion).


Трекер:  [ 29-Янв-2012 16:50 ]

  

Скачать .torrent

Размер .torrent файла 18 KB


Размер: 206 MB
Хэш (hash) релиза: ae0549b00c8762067a86bcd539a085d8ba9723bc

Еще никто не оставлял запись к записи скачать торрент Sonny Phillips - My Black Flower - 1999, FLAC . Будь первым!

!Обратная связь