Скачать через торрент музыку Freddie Hubbard - Super Blue - бесплатно без регистрации torrent

Если у вас наблюдаются проблемы со скриншотами, переходом по ссылками, скачиванием торрентов - проблемы в блокировщике рекламы AdBlock. #хорошегоДня!


Статистика раздачи
Размер:  397 MB   |    Зарегистрирован:  5 лет 8 месяцев   |    .torrent скачан:  27 раз   |   
Раздают:  1  
   
Загрузка...
 
Автор Сообщение

Umakiro

avatar Umakiro


Freddie Hubbard / Super Blue

Жанр: Hard Bop, Post-Bop
Страна-производитель диска: USA
Год издания диска: (1978) - 2007
Издатель (лейбл): Mosaic Contemporary
Номер по каталогу: MSC 5001
Страна: USA Indianapolis, IN
Аудиокодек: WavPack (*.wv)
Тип рипа: image+.cue
Битрейт аудио: lossless
Продолжительность: 01:02:41
Источник (релизер): elite
Наличие сканов в содержимом раздачи: да
Треклист:
01. Super Blue [07:51]
02. To Her Ladyship [06:00]
03. Take It To The Ozone [07:02]
04. The Gospel Truth [05:01]
05. The Surest Things Can Change [06:19]
06. Theme For Kareem [06:08]
07. Super Blue (Alternate Take) [10:36]
08. Take It To The Ozone (Alternate Take) [06:56]
09. Theme For Kareem (Alternate Take) [06:44]
 
Exact Audio Copy V1.0 beta 2 from 29. April 2011

EAC extraction logfile from 22. June 2011, 12:05

Freddie Hubbard / Super Blue

Used drive : Memorex 52MAXX 3252AJ1 Adapter: 1 ID: 0

Read mode : SecureUtilize accurate stream : YesDefeat audio cache : YesMake use of C2 pointers : No

Read offset correction : 6Overread into Lead-In and Lead-Out : NoFill up missing offset samples with silence : YesDelete leading and trailing silent blocks : NoNull samples used in CRC calculations : YesUsed interface : Native Win32 interface for Win NT & 2000

Used output format : User Defined EncoderSelected bitrate : 1024 kBit/sQuality : HighAdd ID3 tag : NoCommand line compressor : C:\Program Files (x86)\Exact Audio Copy\wavpack.exeAdditional command line options : -w "Artist=%artist%" -w "Title=%title%" -w "Album=%albumtitle%" -w "Year=%year%" -w "Track=%tracknr%" -w "Genre=%genre%" -h %source% %dest%

TOC of the extracted CD

Track | Start | Length | Start sector | End sector --------------------------------------------------------- 1 | 0:00.00 | 7:51.53 | 0 | 35377 2 | 7:51.53 | 6:00.74 | 35378 | 62451 3 | 13:52.52 | 7:02.70 | 62452 | 94171 4 | 20:55.47 | 5:01.35 | 94172 | 116781 5 | 25:57.07 | 6:19.28 | 116782 | 145234 6 | 32:16.35 | 6:08.29 | 145235 | 172863 7 | 38:24.64 | 10:36.01 | 172864 | 220564 8 | 49:00.65 | 6:56.15 | 220565 | 251779 9 | 55:57.05 | 6:44.25 | 251780 | 282104

Range status and errors

Selected range

Filename C:\Users\M@ce\Music\Archives\Rips\Freddie Hubbard - Super Blue.wav

Peak level 98.5 % Extraction speed 2.5 X Range quality 100.0 % Test CRC 9FC712CA Copy CRC 9FC712CA Copy OK

No errors occurred

AccurateRip summary

Track 1 accurately ripped (confidence 6) [7CE9BAF3] (AR v1)Track 2 accurately ripped (confidence 6) [5DBD81EF] (AR v1)Track 3 accurately ripped (confidence 6) [17DA8498] (AR v1)Track 4 accurately ripped (confidence 5) [B6AE6145] (AR v1)Track 5 accurately ripped (confidence 6) [EEC97FAE] (AR v1)Track 6 accurately ripped (confidence 6) [016D1986] (AR v1)Track 7 accurately ripped (confidence 6) [6E77DF7F] (AR v1)Track 8 accurately ripped (confidence 5) [417D86C6] (AR v1)Track 9 accurately ripped (confidence 6) [42EEC118] (AR v1)

All tracks accurately ripped

End of status report

---- CUETools DB Plugin V2.1.2

[CTDB TOCID: KGEmkWqlqvp5_09pXiFavQotFFs-] disk not present in database, Submit result: KGEmkWqlqvp5_09pXiFavQotFFs- has been uploaded

==== Log checksum 51589CA4CE79BB95A8676B0EFE08D436A9E091199AEFD71342256AF4EB823FFE ====
 
REM GENRE JazzREM DATE 1978REM DISCID 870EB109REM COMMENT "ExactAudioCopy v1.0b2"PERFORMER "Freddie Hubbard"TITLE "Super Blue"FILE "Freddie Hubbard - Super Blue.wv" WAVE TRACK 01 AUDIO TITLE "Super Blue" PERFORMER "Freddie Hubbard" INDEX 01 00:00:00 TRACK 02 AUDIO TITLE "To Her Ladyship" PERFORMER "Freddie Hubbard" INDEX 00 07:51:11 INDEX 01 07:51:53 TRACK 03 AUDIO TITLE "Take It To The Ozone" PERFORMER "Freddie Hubbard" INDEX 00 13:51:50 INDEX 01 13:52:52 TRACK 04 AUDIO TITLE "The Gospel Truth" PERFORMER "Freddie Hubbard" INDEX 00 20:55:26 INDEX 01 20:55:47 TRACK 05 AUDIO TITLE "The Surest Things Can Change" PERFORMER "Freddie Hubbard" INDEX 00 25:56:65 INDEX 01 25:57:07 TRACK 06 AUDIO TITLE "Theme For Kareem" PERFORMER "Freddie Hubbard" INDEX 00 32:16:11 INDEX 01 32:16:35 TRACK 07 AUDIO TITLE "Super Blue (Alternate Take)" PERFORMER "Freddie Hubbard" INDEX 00 38:22:70 INDEX 01 38:24:64 TRACK 08 AUDIO TITLE "Take It To The Ozone (Alternate Take)" PERFORMER "Freddie Hubbard" INDEX 00 48:59:29 INDEX 01 49:00:65 TRACK 09 AUDIO TITLE "Theme For Kareem (Alternate Take)" PERFORMER "Freddie Hubbard" INDEX 00 55:55:63 INDEX 01 55:57:05
 
-----------------------

DON'T MODIFY THIS FILE

-----------------------

PERFORMER: auCDtect Task Manager, ver. 1.5.1RC6 build 1.5.1.7Copyright (c) 2008-2010 y-soft. All rights reservedhttp://y-soft.org

ANALYZER: auCDtect: CD records authenticity detector, version 0.8.2Copyright (c) 2004 Oleg Berngardt. All rights reserved.Copyright (c) 2004 Alexander Djourik. All rights reserved.

FILE: Freddie Hubbard - Super Blue.wv Size: 396208240 Hash: 05CD91D56034A2DEFAE7A2DA2C007FF4 Accuracy: -m0 Conclusion: CDDA 100% Signature: C3224747A9B03DFADACB1242F1A6E39357809D92
FREDDIE HUBBARD: TRUMPET
HUBERT LAWS: FLUTES
JOE HENDERSON: TENOR SAXOPHONE
RON CARTER: BASS
JACK DEJOHNETTE: DRUMS
KENNY BARRON: KEYBOARDS
GEORGE BENSON: GUITAR


Трекер:  [ 29-Янв-2012 16:49 ]

  

Скачать .torrent

Размер .torrent файла 16 KB


Размер: 397 MB
Хэш (hash) релиза: 59224302013556335499c5f58b38ec69cbde9e48

Еще никто не оставлял запись к записи скачать торрент Freddie Hubbard - Super Blue - . Будь первым!

!Обратная связь