Скачать через торрент музыку Banda Brothers - Acting Up!- 2003, APE бесплатно без регистрации torrent

Если у вас наблюдаются проблемы со скриншотами, переходом по ссылками, скачиванием торрентов - проблемы в блокировщике рекламы AdBlock. #хорошегоДня!


Статистика раздачи
Размер:  442 MB   |    Зарегистрирован:  5 лет 8 месяцев   |    .torrent скачан:  22 раза   |   
Раздают:  1  
   
Загрузка...
 
Автор Сообщение

Umakiro

avatar Umakiro


Banda Brothers / Acting Up!

Жанр: Afro-Cuban Jazz, Latin Jazz
Год издания диска: 2003
Издатель (лейбл): WJ3 Records
Номер по каталогу: WJ31004
Страна: Norwalk, California, US
Аудиокодек: APE (*.ape)
Тип рипа: image+.cue
Битрейт аудио: lossless
Продолжительность: 01:07:31
Источник (релизер): dreadbull
Наличие сканов в содержимом раздачи: да
Треклист:
01. 1070 Elder Avenue, The Bronx [06:40]
02. Concepts in Blue [06:19]
03. Fun [06:42]
04. Contemplation [06:38]
05. Talk Like Eddie [05:33]
06. Ara Orun [08:23]
07. Dime Caridad [07:33]
08. I Don't Mind [05:53]
09. Smart Boy [05:14]
10. Acting Up! [08:33]
 
Exact Audio Copy V1.0 beta 2 from 29. April 2011

EAC extraction logfile from 28. October 2011, 5:06

Banda Brothers / Acting Up!

Used drive : ASUS DRW-22B2L Adapter: 0 ID: 1

Read mode : SecureUtilize accurate stream : YesDefeat audio cache : YesMake use of C2 pointers : No

Read offset correction : 6Overread into Lead-In and Lead-Out : NoFill up missing offset samples with silence : YesDelete leading and trailing silent blocks : NoNull samples used in CRC calculations : YesUsed interface : Native Win32 interface for Win NT & 2000

Used output format : Internal WAV RoutinesSample format : 44.100 Hz; 16 Bit; Stereo

TOC of the extracted CD

Track | Start | Length | Start sector | End sector --------------------------------------------------------- 1 | 0:00.00 | 6:40.66 | 0 | 30065 2 | 6:40.66 | 6:19.65 | 30066 | 58555 3 | 13:00.56 | 6:42.23 | 58556 | 88728 4 | 19:43.04 | 6:38.07 | 88729 | 118585 5 | 26:21.11 | 5:33.57 | 118586 | 143617 6 | 31:54.68 | 8:23.06 | 143618 | 181348 7 | 40:17.74 | 7:33.04 | 181349 | 215327 8 | 47:51.03 | 5:53.19 | 215328 | 241821 9 | 53:44.22 | 5:14.19 | 241822 | 265390 10 | 58:58.41 | 8:33.34 | 265391 | 303899

Range status and errors

Selected range

Filename D:\Donkey Files\Banda Brothrers - Acting Up (2003) eac-ape-scans byDrBull\Banda Brothers - Acting Up!.wav

Peak level 99.9 % Extraction speed 6.4 X Range quality 100.0 % Test CRC 5FE04A05 Copy CRC 5FE04A05 Copy OK

No errors occurred

AccurateRip summary

Track 1 not present in databaseTrack 2 not present in databaseTrack 3 not present in databaseTrack 4 not present in databaseTrack 5 not present in databaseTrack 6 not present in databaseTrack 7 not present in databaseTrack 8 not present in databaseTrack 9 not present in databaseTrack 10 not present in database

None of the tracks are present in the AccurateRip database

End of status report

==== Log checksum 8A1CDFC430990AB7B97769D8D942DFC45A82F3C2D127FFE834C4133C83E1AF78 ====
 
REM GENRE JazzREM DATE 2003REM DISCID 870FD40AREM COMMENT "ExactAudioCopy v1.0b2"PERFORMER "Banda Brothers"TITLE "Acting Up!"FILE "Banda Brothers - Acting Up!.wav" WAVE TRACK 01 AUDIO TITLE "1070 Elder Avenue, The Bronx" PERFORMER "Banda Brothers" INDEX 01 00:00:00 TRACK 02 AUDIO TITLE "Concepts in Blue" PERFORMER "Banda Brothers" INDEX 00 06:36:06 INDEX 01 06:40:66 TRACK 03 AUDIO TITLE "Fun" PERFORMER "Banda Brothers" INDEX 00 12:57:30 INDEX 01 13:00:56 TRACK 04 AUDIO TITLE "Contemplation" PERFORMER "Banda Brothers" INDEX 00 19:39:04 INDEX 01 19:43:04 TRACK 05 AUDIO TITLE "Talk Like Eddie" PERFORMER "Banda Brothers" INDEX 00 26:17:31 INDEX 01 26:21:11 TRACK 06 AUDIO TITLE "Ara Orun" PERFORMER "Banda Brothers" INDEX 00 31:50:27 INDEX 01 31:54:68 TRACK 07 AUDIO TITLE "Dime Caridad" PERFORMER "Banda Brothers" INDEX 00 40:13:15 INDEX 01 40:17:74 TRACK 08 AUDIO TITLE "I Don't Mind" PERFORMER "Banda Brothers" INDEX 00 47:47:20 INDEX 01 47:51:03 TRACK 09 AUDIO TITLE "Smart Boy" PERFORMER "Banda Brothers" INDEX 00 53:40:56 INDEX 01 53:44:22 TRACK 10 AUDIO TITLE "Acting Up!" PERFORMER "Banda Brothers" INDEX 00 58:55:11 INDEX 01 58:58:41
 
-----------------------

DON'T MODIFY THIS FILE

-----------------------

PERFORMER: auCDtect Task Manager, ver. 1.5.1RC6 build 1.5.1.7Copyright (c) 2008-2010 y-soft. All rights reservedhttp://y-soft.org

ANALYZER: auCDtect: CD records authenticity detector, version 0.8.2Copyright (c) 2004 Oleg Berngardt. All rights reserved.Copyright (c) 2004 Alexander Djourik. All rights reserved.

FILE: Banda Brothers - Acting Up!.ape Size: 450626104 Hash: FA43B1020CEA3219B3C66F2677BF9263 Accuracy: -m0 Conclusion: CDDA 100% Signature: 24D48865ACFCA2B7803AD36C966A35FCF4401CD1
Ramon Banda - drums, timbales;
Tony Banda - bass, chekere;
Francisco Torres - trombone;
Chris Barron - keyboards, piano;
Joey De León - congas;
Javier Vergara - tenor sax.
Guests:
José "Papo" Rodríguez - bongos
Alfred Ortiz - guiro & maracas


Трекер:  [ 29-Янв-2012 16:49 ]

  

Скачать .torrent

Размер .torrent файла 18 KB


Размер: 442 MB
Хэш (hash) релиза: ced093755e7ad36d4621e1e875a97bc3e6098f83

Еще никто не оставлял запись к записи скачать торрент Banda Brothers - Acting Up!- 2003, APE . Будь первым!

!Обратная связь