Скачать через торрент музыку Tom Harrell - The Time of the Sun - 2011, FLAC бесплатно без регистрации torrent

Если у вас наблюдаются проблемы со скриншотами, переходом по ссылками, скачиванием торрентов - проблемы в блокировщике рекламы AdBlock. #хорошегоДня!


Статистика раздачи
Размер:  400 MB   |    Зарегистрирован:  5 лет 8 месяцев   |    .torrent скачан:  21 раз   |   
Раздают:  1  
   
Загрузка...
 
Автор Сообщение

Umakiro

avatar Umakiro


Tom Harrell / The Time of the Sun

Жанр: Post-Bop, Straight-Ahead Jazz, Trumpet Jazz
Страна-производитель диска: USA
Год издания диска: 2011
Издатель (лейбл): High Note Records
Номер по каталогу: 7222
Страна: USA Urbana, IL
Аудиокодек: FLAC (*.flac)
Тип рипа: tracks+.cue
Битрейт аудио: lossless
Продолжительность: 01:02:15
Источник (релизер): sddd
Наличие сканов в содержимом раздачи: нет
Треклист:
01. The Time of the Sun [05:57]
02. Estuary [08:41]
03. Ridin' [09:02]
04. The Open Door [06:33]
05. Dream Text [07:28]
06. Modern Life [07:10]
07. River Samba [05:04]
08. Cactus [06:28]
09. Otra [05:49]
 
Exact Audio Copy V1.0 beta 1 from 15. November 2010

EAC extraction logfile from 6. December 2011, 20:00

Tom Harrell / The Time of the Sun

Used drive : PIONEER DVD-RW DVRKD08L Adapter: 1 ID: 0

Read mode : SecureUtilize accurate stream : YesDefeat audio cache : YesMake use of C2 pointers : No

Read offset correction : 48Overread into Lead-In and Lead-Out : NoFill up missing offset samples with silence : YesDelete leading and trailing silent blocks : NoNull samples used in CRC calculations : YesUsed interface : Native Win32 interface for Win NT & 2000Gap handling : Appended to previous track

Used output format : User Defined EncoderSelected bitrate : 320 kBit/sQuality : HighAdd ID3 tag : NoCommand line compressor : C:\Program Files (x86)\Exact Audio Copy\Flac\flac.exeAdditional command line options : -V -8 -T "artist=%a" -T "title=%t" -T "album=%g" -T "date=%y" -T "tracknumber=%n" -T "genre=%m" %s

TOC of the extracted CD

Track | Start | Length | Start sector | End sector --------------------------------------------------------- 1 | 0:00.00 | 5:57.07 | 0 | 26781 2 | 5:57.07 | 8:41.18 | 26782 | 65874 3 | 14:38.25 | 9:02.34 | 65875 | 106558 4 | 23:40.59 | 6:33.36 | 106559 | 136069 5 | 30:14.20 | 7:28.58 | 136070 | 169727 6 | 37:43.03 | 7:10.51 | 169728 | 202028 7 | 44:53.54 | 5:04.16 | 202029 | 224844 8 | 49:57.70 | 6:28.52 | 224845 | 253996 9 | 56:26.47 | 5:49.12 | 253997 | 280183

Track 1

Filename c:\EACrips\Tom Harrell -2011- The Time of the Sun [FLAC]\01 - The Time of the Sun.wav

Pre-gap length 0:00:02.00

Peak level 97.7 % Extraction speed 1.6 X Track quality 100.0 % Test CRC 20383B16 Copy CRC 20383B16 Accurately ripped (confidence 1) [CC76524B] Copy OK

Track 2

Filename c:\EACrips\Tom Harrell -2011- The Time of the Sun [FLAC]\02 - Estuary.wav

Peak level 97.7 % Extraction speed 2.0 X Track quality 100.0 % Test CRC C74FB56D Copy CRC C74FB56D Accurately ripped (confidence 1) [504FFA1B] Copy OK

Track 3

Filename c:\EACrips\Tom Harrell -2011- The Time of the Sun [FLAC]\03 - Ridin'.wav

Peak level 97.7 % Extraction speed 2.3 X Track quality 100.0 % Test CRC 8EFCA69D Copy CRC 8EFCA69D Accurately ripped (confidence 1) [8E41A619] Copy OK

Track 4

Filename c:\EACrips\Tom Harrell -2011- The Time of the Sun [FLAC]\04 - The Open Door.wav

Peak level 97.7 % Extraction speed 2.2 X Track quality 99.9 % Test CRC CB0B36DE Copy CRC CB0B36DE Accurately ripped (confidence 1) [4CA7C88D] Copy OK

Track 5

Filename c:\EACrips\Tom Harrell -2011- The Time of the Sun [FLAC]\05 - Dream Text.wav

Peak level 97.7 % Extraction speed 2.7 X Track quality 100.0 % Test CRC C916BCFC Copy CRC C916BCFC Accurately ripped (confidence 1) [BCE18506] Copy OK

Track 6

Filename c:\EACrips\Tom Harrell -2011- The Time of the Sun [FLAC]\06 - Modern Life.wav

Peak level 97.7 % Extraction speed 2.6 X Track quality 99.9 % Test CRC 9578D25D Copy CRC 9578D25D Accurately ripped (confidence 1) [C1A6D142] Copy OK

Track 7

Filename c:\EACrips\Tom Harrell -2011- The Time of the Sun [FLAC]\07 - River Samba.wav

Peak level 97.7 % Extraction speed 2.9 X Track quality 100.0 % Test CRC 8A59A9D5 Copy CRC 8A59A9D5 Accurately ripped (confidence 1) [3214A106] Copy OK

Track 8

Filename c:\EACrips\Tom Harrell -2011- The Time of the Sun [FLAC]\08 - Cactus.wav

Peak level 97.7 % Extraction speed 3.1 X Track quality 100.0 % Test CRC CA4649FB Copy CRC CA4649FB Accurately ripped (confidence 1) [B51B9F79] Copy OK

Track 9

Filename c:\EACrips\Tom Harrell -2011- The Time of the Sun [FLAC]\09 - Otra.wav

Peak level 97.7 % Extraction speed 3.2 X Track quality 100.0 % Test CRC 571F04B4 Copy CRC 571F04B4 Accurately ripped (confidence 1) [900F584A] Copy OK

All tracks accurately ripped

No errors occurred

End of status report

==== Log checksum 682562F73DAB612A9F51F8302F18F7BF1041A9801FA6EBE44195961DD0A1393C ====
 
REM GENRE JazzREM DATE 2011REM DISCID 940E9709REM COMMENT "ExactAudioCopy v1.0b1"PERFORMER "Tom Harrell"TITLE "The Time of the Sun"FILE "01 - The Time of the Sun.wav" WAVE TRACK 01 AUDIO TITLE "The Time of the Sun" PERFORMER "Tom Harrell" INDEX 01 00:00:00FILE "02 - Estuary.wav" WAVE TRACK 02 AUDIO TITLE "Estuary" PERFORMER "Tom Harrell" INDEX 01 00:00:00FILE "03 - Ridin'.wav" WAVE TRACK 03 AUDIO TITLE "Ridin'" PERFORMER "Tom Harrell" INDEX 01 00:00:00FILE "04 - The Open Door.wav" WAVE TRACK 04 AUDIO TITLE "The Open Door" PERFORMER "Tom Harrell" INDEX 01 00:00:00FILE "05 - Dream Text.wav" WAVE TRACK 05 AUDIO TITLE "Dream Text" PERFORMER "Tom Harrell" INDEX 01 00:00:00FILE "06 - Modern Life.wav" WAVE TRACK 06 AUDIO TITLE "Modern Life" PERFORMER "Tom Harrell" INDEX 01 00:00:00FILE "07 - River Samba.wav" WAVE TRACK 07 AUDIO TITLE "River Samba" PERFORMER "Tom Harrell" INDEX 01 00:00:00FILE "08 - Cactus.wav" WAVE TRACK 08 AUDIO TITLE "Cactus" PERFORMER "Tom Harrell" INDEX 01 00:00:00FILE "09 - Otra.wav" WAVE TRACK 09 AUDIO TITLE "Otra" PERFORMER "Tom Harrell" INDEX 01 00:00:00
 
-----------------------

DON'T MODIFY THIS FILE

-----------------------

PERFORMER: auCDtect Task Manager, ver. 1.5.1RC6 build 1.5.1.7Copyright (c) 2008-2010 y-soft. All rights reservedhttp://y-soft.org

ANALYZER: auCDtect: CD records authenticity detector, version 0.8.2Copyright (c) 2004 Oleg Berngardt. All rights reserved.Copyright (c) 2004 Alexander Djourik. All rights reserved.

FILE: 09 - Otra.flac Size: 41644341 Hash: A7F83884EEC045A4C0F4BD2C61F714F2 Accuracy: -m0 Conclusion: CDDA 100% Signature: 513E206AD9CA731CF6F97D575C2F3F948077A2DAFILE: 08 - Cactus.flac Size: 44494360 Hash: B487E1330244CF043A92081D655D7538 Accuracy: -m0 Conclusion: CDDA 100% Signature: 3EE24FD7D06DC8BB02DF25566433F8273E57803BFILE: 07 - River Samba.flac Size: 35094906 Hash: 25FB9196E23A6C7ED7736CEF54E89EA7 Accuracy: -m0 Conclusion: CDDA 100% Signature: 23ADEC77C57C7A213BC44207E446F7C55245F1B8FILE: 06 - Modern Life.flac Size: 49078036 Hash: 8F456C262F9D154F081D8DF42B763F49 Accuracy: -m0 Conclusion: CDDA 100% Signature: 0D0DFE2AE7FB0FC148FFF81819A3E39F15A52BD7FILE: 05 - Dream Text.flac Size: 51538459 Hash: 70F18A5BC20066A9C15AB39E2AE8F9C4 Accuracy: -m0 Conclusion: CDDA 100% Signature: 8D931B252F63C512E8BD79D37BD76E14131D467EFILE: 04 - The Open Door.flac Size: 42543585 Hash: 29B10069C7768ED63A71CBF27868069F Accuracy: -m0 Conclusion: CDDA 100% Signature: 3AF4552D391C91578F83935E1E3F9C0C20045F95FILE: 03 - Ridin'.flac Size: 62514008 Hash: E687A371E1899713805AAA74CA8ED846 Accuracy: -m0 Conclusion: CDDA 100% Signature: C99242BDAB55E4B33488723059FE18E9303F80C2FILE: 02 - Estuary.flac Size: 52172293 Hash: DA3E77834851451096174BD0EE83BCE5 Accuracy: -m0 Conclusion: CDDA 100% Signature: A8352CFEE58B6E69C96A6767FE58DC75D7BD9184FILE: 01 - The Time of the Sun.flac Size: 39861118 Hash: DB1704DE7B477FD24AB62277FC5BA768 Accuracy: -m0 Conclusion: CDDA 100% Signature: A7446391FE941807B026139DF299432E1D96FBEC
Tom Harrell (trumpet, flugelhorn);
Wayne Escoffery (tenor saxophone);
Danny Grissett (piano, Fender Rhodes piano);
Johnathan Blake (drums)
Ugonna Okegwo - bass


Трекер:  [ 29-Янв-2012 16:49 ]

  

Скачать .torrent

Размер .torrent файла 16 KB


Размер: 400 MB
Хэш (hash) релиза: e52631a2c1ac01f92aadd5f9097024363b8e3dde

Еще никто не оставлял запись к записи скачать торрент Tom Harrell - The Time of the Sun - 2011, FLAC . Будь первым!

!Обратная связь