Скачать через торрент музыку The New York Hardbop Quintet - A Whisper Away - 1998, FLAC бесплатно без регистрации torrent

Если у вас наблюдаются проблемы со скриншотами, переходом по ссылками, скачиванием торрентов - проблемы в блокировщике рекламы AdBlock. #хорошегоДня!


Статистика раздачи
Размер:  346 MB   |    Зарегистрирован:  5 лет 8 месяцев   |    .torrent скачан:  20 раз   |   
Раздают:  1  
   
Загрузка...
 
Автор Сообщение

Umakiro

avatar Umakiro


The New York Hardbop Quintet - A Whisper Away

Жанр: Hard Bop
Год издания диска: 1998
Издатель (лейбл): TCB records
Номер по каталогу: TCB 98702
Аудиокодек: FLAC (*.flac)
Тип рипа: image+.cue
Битрейт аудио: lossless
Продолжительность: 00:58:18
Источник (релизер): karelin
Наличие сканов в содержимом раздачи: нет
01. A Whisper Away [07:19]
02. Three for Amanda [07:34]
03. 99 [08:28]
04. Everything I Have is Yours [07:56]
05. Basia's Dream [06:17]
06. Bella Carolina [06:41]
07. Grace [06:51]
08. Martin Scores Easy [07:12]
 
Exact Audio Copy V1.0 beta 1 from 15. November 2010

EAC extraction logfile from 25. April 2011, 0:50

The New York Hard Bop Quintet / A Whisper Away

Used drive : ATAPI DVD A DH20A4P Adapter: 1 ID: 0

Read mode : SecureUtilize accurate stream : YesDefeat audio cache : YesMake use of C2 pointers : No

Read offset correction : 6Overread into Lead-In and Lead-Out : NoFill up missing offset samples with silence : YesDelete leading and trailing silent blocks : NoNull samples used in CRC calculations : YesUsed interface : Installed external ASPI interface

Used output format : User Defined EncoderSelected bitrate : 1024 kBit/sQuality : HighAdd ID3 tag : NoCommand line compressor : C:\Program Files\Exact Audio Copy\Flac\flac.exeAdditional command line options : -8 -V -T "ARTIST=%a" -T "TITLE=%t" -T "ALBUM=%g" -T "DATE=%y" -T "TRACKNUMBER=%n" -T "GENRE=%m" -T "COMMENT=EAC FLAC -8" %s

TOC of the extracted CD

Track | Start | Length | Start sector | End sector --------------------------------------------------------- 1 | 0:00.00 | 7:19.00 | 0 | 32924 2 | 7:19.00 | 7:34.00 | 32925 | 66974 3 | 14:53.00 | 8:28.00 | 66975 | 105074 4 | 23:21.00 | 7:56.00 | 105075 | 140774 5 | 31:17.00 | 6:17.00 | 140775 | 169049 6 | 37:34.00 | 6:41.00 | 169050 | 199124 7 | 44:15.00 | 6:51.30 | 199125 | 229979 8 | 51:06.30 | 7:12.00 | 229980 | 262379

Range status and errors

Selected range

Filename D:\The N. Y. Hard Bop Quintet - A Whisper Away - 1997 - [oStereo.ru] - TCB Records.wav

Peak level 97.9 % Extraction speed 0.3 X Range quality 100.0 % Test CRC F515F6B3 Copy CRC F515F6B3 Copy OK

No errors occurred

AccurateRip summary

Track 1 accurately ripped (confidence 1) [B2123A31]Track 2 accurately ripped (confidence 1) [9747DF19]Track 3 accurately ripped (confidence 1) [2764CEDF]Track 4 accurately ripped (confidence 1) [28498EA4]Track 5 accurately ripped (confidence 1) [61F10D9F]Track 6 accurately ripped (confidence 1) [A3B77C85]Track 7 accurately ripped (confidence 1) [91522A7D]Track 8 accurately ripped (confidence 1) [E1FC34C1]

All tracks accurately ripped

End of status report

==== Log checksum A5379E00A3EB4DD44E04E0ABD443DB10CD534C567B36670217EC6FD09C2C96F6 ====
 
REM GENRE JazzREM DATE 1998REM DISCID 760DAA08REM COMMENT "ExactAudioCopy v1.0b1"PERFORMER "The New York Hard Bop Quintet"TITLE "A Whisper Away"FILE "The N. Y. Hard Bop Quintet - A Whisper Away - 1997 - [oStereo.ru] - TCB Records.flac" WAVE TRACK 01 AUDIO TITLE "A Whisper Away" PERFORMER "The New York Hard Bop Quintet" INDEX 01 00:00:00 TRACK 02 AUDIO TITLE "Three for Amanda" PERFORMER "The New York Hard Bop Quintet" INDEX 00 07:16:30 INDEX 01 07:19:00 TRACK 03 AUDIO TITLE "99" PERFORMER "The New York Hard Bop Quintet" INDEX 00 14:50:30 INDEX 01 14:53:00 TRACK 04 AUDIO TITLE "Everything I Have is Yours" PERFORMER "The New York Hard Bop Quintet" INDEX 00 23:18:30 INDEX 01 23:21:00 TRACK 05 AUDIO TITLE "Basia's Dream" PERFORMER "The New York Hard Bop Quintet" INDEX 00 31:14:29 INDEX 01 31:17:00 TRACK 06 AUDIO TITLE "Bella Carolina" PERFORMER "The New York Hard Bop Quintet" INDEX 00 37:31:30 INDEX 01 37:34:00 TRACK 07 AUDIO TITLE "Grace" PERFORMER "The New York Hard Bop Quintet" INDEX 00 44:12:30 INDEX 01 44:15:00 TRACK 08 AUDIO TITLE "Martin Scores Easy" PERFORMER "The New York Hard Bop Quintet" INDEX 01 51:06:30
Joe Magnarelli - Trumpet
Jerry Weldon - Tenor Saxophone
Keith Saunders - Piano
Bim Strasberg - Bass
Clifford Barbaro - Drums


Трекер:  [ 29-Янв-2012 16:49 ]

  

Скачать .torrent

Размер .torrent файла 14 KB


Размер: 346 MB
Хэш (hash) релиза: 54bca107dc584efe6e265bc943e2e16ab5e3bbbf

Еще никто не оставлял запись к записи скачать торрент The New York Hardbop Quintet - A Whisper Away - 1998, FLAC . Будь первым!

!Обратная связь