Скачать через торрент музыку Adrian Mears New Orleans Hardbop - Birdseye View - 2008, FLAC бесплатно без регистрации torrent

Если у вас наблюдаются проблемы со скриншотами, переходом по ссылками, скачиванием торрентов - проблемы в блокировщике рекламы AdBlock. #хорошегоДня!


Статистика раздачи
Размер:  454 MB   |    Зарегистрирован:  5 лет 8 месяцев   |    .torrent скачан:  22 раза   |   
Раздают:  1  
   
Загрузка...
 
Автор Сообщение

Umakiro

avatar Umakiro


Adrian Mears New Orleans Hardbop / Birdseye View

Жанр: Hard Bop
Год издания диска: 2008
Издатель (лейбл): TCB
Номер по каталогу: TCB 28103
Страна: Australia
Аудиокодек: FLAC (*.flac)
Тип рипа: image+.cue
Битрейт аудио: lossless
Продолжительность: 01:08:53
Источник (релизер): karelin
Наличие сканов в содержимом раздачи: нет
Треклист:
01. Riding East [08:58]
02. Today's The Day [06:59]
03. Children At Play [08:49]
04. The Poor Man [07:10]
05. Joe's Fantasy [13:06]
06. Momentum [07:01]
07. Human Dignity [07:14]
08. Extensions [08:28]
09. Riding East Annoucment [01:04]
 
Exact Audio Copy V1.0 beta 1 from 15. November 2010

EAC extraction logfile from 6. September 2011, 20:39

Adrian Mears / Birdseye View

Used drive : ATAPI DVD A DH20A4P Adapter: 1 ID: 0

Read mode : SecureUtilize accurate stream : YesDefeat audio cache : YesMake use of C2 pointers : No

Read offset correction : 6Overread into Lead-In and Lead-Out : NoFill up missing offset samples with silence : YesDelete leading and trailing silent blocks : NoNull samples used in CRC calculations : YesUsed interface : Installed external ASPI interface

Used output format : User Defined EncoderSelected bitrate : 1024 kBit/sQuality : HighAdd ID3 tag : NoCommand line compressor : C:\Program Files\Exact Audio Copy\Flac\flac.exeAdditional command line options : -5 -V -T "ARTIST=%a" -T "TITLE=%t" -T "ALBUM=%g" -T "DATE=%y" -T "TRACKNUMBER=%n" -T "GENRE=%m" -T "COMMENT=[oStereo.ru]" %s

TOC of the extracted CD

Track | Start | Length | Start sector | End sector --------------------------------------------------------- 1 | 0:00.00 | 8:58.01 | 0 | 40350 2 | 8:58.01 | 6:59.50 | 40351 | 71825 3 | 15:57.51 | 8:49.11 | 71826 | 111511 4 | 24:46.62 | 7:10.07 | 111512 | 143768 5 | 31:56.69 | 13:06.07 | 143769 | 202725 6 | 45:03.01 | 7:01.71 | 202726 | 234371 7 | 52:04.72 | 7:14.62 | 234372 | 266983 8 | 59:19.59 | 8:28.60 | 266984 | 305143 9 | 67:48.44 | 1:04.72 | 305144 | 310015

Range status and errors

Selected range

Filename D:\Adrian Mears New Orleans Hardbop - Birdseye View - [oStereo.ru] - 2008 - TCB.wav

Peak level 97.7 % Extraction speed 0.0 X Range quality 99.9 % Test CRC E8B95937 Copy CRC E8B95937 Copy OK

No errors occurred

AccurateRip summary

Track 1 not present in databaseTrack 2 not present in databaseTrack 3 not present in databaseTrack 4 not present in databaseTrack 5 not present in databaseTrack 6 not present in databaseTrack 7 not present in databaseTrack 8 not present in databaseTrack 9 not present in database

None of the tracks are present in the AccurateRip database

End of status report

==== Log checksum E57F4DEA2140780B3B6A22F05BB47B3B29AA6815EB65C5D271FFFB6AC6D2CD55 ====
 
REM GENRE JazzREM DATE 2008REM DISCID 7E102509REM COMMENT "ExactAudioCopy v1.0b1"PERFORMER "Adrian Mears"TITLE "Birdseye View"FILE "Adrian Mears New Orleans Hardbop - Birdseye View - [oStereo.ru] - 2008 - TCB.flac" WAVE TRACK 01 AUDIO TITLE "Riding East" PERFORMER "Adrian Mears" INDEX 01 00:00:00 TRACK 02 AUDIO TITLE "Today's The Day" PERFORMER "Adrian Mears" INDEX 00 08:56:01 INDEX 01 08:58:01 TRACK 03 AUDIO TITLE "Children At Play" PERFORMER "Adrian Mears" INDEX 00 15:55:51 INDEX 01 15:57:51 TRACK 04 AUDIO TITLE "The Poor Man" PERFORMER "Adrian Mears" INDEX 00 24:44:62 INDEX 01 24:46:62 TRACK 05 AUDIO TITLE "Joe's Fantasy" PERFORMER "Adrian Mears" INDEX 00 31:54:69 INDEX 01 31:56:69 TRACK 06 AUDIO TITLE "Momentum" PERFORMER "Adrian Mears" INDEX 00 45:01:01 INDEX 01 45:03:01 TRACK 07 AUDIO TITLE "Human Dignity" PERFORMER "Adrian Mears" INDEX 00 52:02:72 INDEX 01 52:04:72 TRACK 08 AUDIO TITLE "Extensions" PERFORMER "Adrian Mears" INDEX 00 59:17:59 INDEX 01 59:19:59 TRACK 09 AUDIO TITLE "Riding East Annoucment" PERFORMER "Adrian Mears" INDEX 00 67:46:44 INDEX 01 67:48:44
Adrian Mears - trombone, didgeridoo, composer
Domenik Landolf - tenor sax
Peter Madsen - piano
Stephan Kurmann - bass
Mario Gonzi - drums


Трекер:  [ 29-Янв-2012 16:48 ]

  

Скачать .torrent

Размер .torrent файла 18 KB


Размер: 454 MB
Хэш (hash) релиза: 66e80ce4813d1d21bf71c2260b78464867a6c127

Еще никто не оставлял запись к записи скачать торрент Adrian Mears New Orleans Hardbop - Birdseye View - 2008, FLAC . Будь первым!

!Обратная связь