Скачать через торрент музыку Adrian Mears New Orleans Hardbop - Jump On In - 2004, FLAC бесплатно без регистрации torrent

Если у вас наблюдаются проблемы со скриншотами, переходом по ссылками, скачиванием торрентов - проблемы в блокировщике рекламы AdBlock. #хорошегоДня!


Статистика раздачи
Размер:  383 MB   |    Зарегистрирован:  5 лет 8 месяцев   |    .torrent скачан:  36 раз   |   
Раздают:  1  
   
Загрузка...
 
Автор Сообщение

Umakiro

avatar Umakiro


Adrian Mears New Orleans Hardbop / Jump On In

Жанр: Hard Bop
Год издания диска: 2004
Издатель (лейбл): TCB
Номер по каталогу: TCB 25202
Страна: Australia
Аудиокодек: FLAC (*.flac)
Тип рипа: image+.cue
Битрейт аудио: lossless
Продолжительность: 01:05:19
Источник (релизер): karelin
Наличие сканов в содержимом раздачи: нет
Треклист:
01. Jump On In [07:47]
02. Stompin [06:57]
03. Quantum [06:47]
04. Common Interests [06:19]
05. Flyin In Style [08:22]
06. Darn That Dream [03:17]
07. Durge For Durg [04:31]
08. Off The Beaten Track [06:17]
09. Something's Comin Your Way [07:51]
10. Freedom Jazz dance [07:08]
 
Exact Audio Copy V1.0 beta 1 from 15. November 2010

EAC extraction logfile from 26. July 2011, 20:53

ADRIAN MEARS NEW ORLEANS HARDBOP / Jump On In

Used drive : ATAPI DVD A DH20A4P Adapter: 1 ID: 0

Read mode : SecureUtilize accurate stream : YesDefeat audio cache : YesMake use of C2 pointers : No

Read offset correction : 6Overread into Lead-In and Lead-Out : NoFill up missing offset samples with silence : YesDelete leading and trailing silent blocks : NoNull samples used in CRC calculations : YesUsed interface : Installed external ASPI interface

Used output format : User Defined EncoderSelected bitrate : 1024 kBit/sQuality : HighAdd ID3 tag : NoCommand line compressor : C:\Program Files\Exact Audio Copy\Flac\flac.exeAdditional command line options : -5 -V -T "ARTIST=%a" -T "TITLE=%t" -T "ALBUM=%g" -T "DATE=%y" -T "TRACKNUMBER=%n" -T "GENRE=%m" -T "COMMENT=[oStereo.ru]" %s

TOC of the extracted CD

Track | Start | Length | Start sector | End sector --------------------------------------------------------- 1 | 0:00.00 | 7:47.25 | 0 | 35049 2 | 7:47.25 | 6:57.07 | 35050 | 66331 3 | 14:44.32 | 6:47.29 | 66332 | 96885 4 | 21:31.61 | 6:19.19 | 96886 | 125329 5 | 27:51.05 | 8:22.56 | 125330 | 163035 6 | 36:13.61 | 3:17.48 | 163036 | 177858 7 | 39:31.34 | 4:31.30 | 177859 | 198213 8 | 44:02.64 | 6:17.00 | 198214 | 226488 9 | 50:19.64 | 7:51.34 | 226489 | 261847 10 | 58:11.23 | 7:08.32 | 261848 | 293979

Range status and errors

Selected range

Filename D:\ADRIAN MEARS NEW ORLEANS HARDBOP - Jump On In - 2004 - [oStereo.ru] - TCB.wav

Peak level 98.8 % Extraction speed 0.3 X Range quality 100.0 % Test CRC FAF6236B Copy CRC FAF6236B Copy OK

No errors occurred

AccurateRip summary

Track 1 accurately ripped (confidence 1) [7AC127C5]Track 2 accurately ripped (confidence 1) [01AFA92A]Track 3 accurately ripped (confidence 1) [DF9B352B]Track 4 accurately ripped (confidence 1) [B5E02E46]Track 5 accurately ripped (confidence 1) [798F498C]Track 6 accurately ripped (confidence 1) [732AD0E6]Track 7 accurately ripped (confidence 1) [8B60983B]Track 8 accurately ripped (confidence 1) [D3B341B0]Track 9 accurately ripped (confidence 1) [69A84712]Track 10 accurately ripped (confidence 1) [0058B016]

All tracks accurately ripped

End of status report

==== Log checksum A799096E3CC39535224CCB7A8A2DBE294ED24F1199FB16A76A35F9854771714B ====
 
REM GENRE JazzREM DATE 2004REM DISCID 920F4F0AREM COMMENT "ExactAudioCopy v1.0b1"PERFORMER "ADRIAN MEARS NEW ORLEANS HARDBOP"TITLE "Jump On In"FILE "ADRIAN MEARS NEW ORLEANS HARDBOP - Jump On In - 2004 - [oStereo.ru] - TCB.flac" WAVE TRACK 01 AUDIO TITLE "Jump On In" PERFORMER "ADRIAN MEARS NEW ORLEANS HARDBOP" INDEX 01 00:00:00 TRACK 02 AUDIO TITLE "Stompin" PERFORMER "ADRIAN MEARS NEW ORLEANS HARDBOP" INDEX 01 07:47:25 TRACK 03 AUDIO TITLE "Quantum " PERFORMER "ADRIAN MEARS NEW ORLEANS HARDBOP" INDEX 01 14:44:32 TRACK 04 AUDIO TITLE "Common Interests " PERFORMER "ADRIAN MEARS NEW ORLEANS HARDBOP" INDEX 00 21:29:61 INDEX 01 21:31:61 TRACK 05 AUDIO TITLE "Flyin In Style " PERFORMER "ADRIAN MEARS NEW ORLEANS HARDBOP" INDEX 01 27:51:05 TRACK 06 AUDIO TITLE "Darn That Dream" PERFORMER "ADRIAN MEARS NEW ORLEANS HARDBOP" INDEX 01 36:13:61 TRACK 07 AUDIO TITLE "Durge For Durg " PERFORMER "ADRIAN MEARS NEW ORLEANS HARDBOP" INDEX 00 39:28:34 INDEX 01 39:31:34 TRACK 08 AUDIO TITLE "Off The Beaten Track " PERFORMER "ADRIAN MEARS NEW ORLEANS HARDBOP" INDEX 01 44:02:64 TRACK 09 AUDIO TITLE "Something's Comin Your Way " PERFORMER "ADRIAN MEARS NEW ORLEANS HARDBOP" INDEX 01 50:19:64 TRACK 10 AUDIO TITLE "Freedom Jazz dance" PERFORMER "ADRIAN MEARS NEW ORLEANS HARDBOP" INDEX 01 58:11:23
[i]Adrian Mears - trombone
Domenic Landolf - tenor sax
Peter Madsen - piano


Трекер:  [ 29-Янв-2012 16:48 ]

  

Скачать .torrent

Размер .torrent файла 16 KB


Размер: 383 MB
Хэш (hash) релиза: 1565950ad193b2da6f60a0e87eb19dde6c1cf6cf

Еще никто не оставлял запись к записи скачать торрент Adrian Mears New Orleans Hardbop - Jump On In - 2004, FLAC . Будь первым!

!Обратная связь