Скачать через торрент музыку Andy Scherrer - Wrong is Right - 2007, FLAC бесплатно без регистрации torrent

Если у вас наблюдаются проблемы со скриншотами, переходом по ссылками, скачиванием торрентов - проблемы в блокировщике рекламы AdBlock. #хорошегоДня!


Статистика раздачи
Размер:  335 MB   |    Зарегистрирован:  5 лет 8 месяцев   |    .torrent скачан:  20 раз   |   
Раздают:  1  
   
Загрузка...
 
Автор Сообщение

Umakiro

avatar Umakiro


Andy Scherrer / Wrong is Right

Жанр: Hard Bop
Год издания диска: 2007
Издатель (лейбл): TCB
Номер по каталогу: TCB 28302
Страна: Switzerland
Аудиокодек: FLAC (*.flac)
Тип рипа: image+.cue
Битрейт аудио: lossless
Продолжительность: 00:57:42
Источник (релизер): karelin
Наличие сканов в содержимом раздачи: нет
Треклист:
01. In Or Out [06:38]
02. For Anne [07:22]
03. Jordan Is A Hard Road To Travel [04:34]
04. Freckles [06:49]
05. Waltz For Blaine [09:29]
06. Karma [08:15]
07. Wrong Wrong Wrong [03:38]
08. After The Rain [05:35]
09. Happy House [05:18]
 
Exact Audio Copy V1.0 beta 1 from 15. November 2010

EAC extraction logfile from 8. October 2011, 21:56

Andy Scherrer special sextet feat. Bill Carrothers / Wrong is Right

Used drive : ATAPI DVD A DH20A4P Adapter: 1 ID: 0

Read mode : SecureUtilize accurate stream : YesDefeat audio cache : YesMake use of C2 pointers : No

Read offset correction : 6Overread into Lead-In and Lead-Out : NoFill up missing offset samples with silence : YesDelete leading and trailing silent blocks : NoNull samples used in CRC calculations : YesUsed interface : Installed external ASPI interface

Used output format : User Defined EncoderSelected bitrate : 1024 kBit/sQuality : HighAdd ID3 tag : NoCommand line compressor : C:\Program Files\Exact Audio Copy\Flac\flac.exeAdditional command line options : -5 -V -T "ARTIST=%a" -T "TITLE=%t" -T "ALBUM=%g" -T "DATE=%y" -T "TRACKNUMBER=%n" -T "GENRE=%m" -T "COMMENT=[oStereo.ru]" %s

TOC of the extracted CD

Track | Start | Length | Start sector | End sector --------------------------------------------------------- 1 | 0:00.00 | 6:38.32 | 0 | 29881 2 | 6:38.32 | 7:22.51 | 29882 | 63082 3 | 14:01.08 | 4:34.02 | 63083 | 83634 4 | 18:35.10 | 6:49.62 | 83635 | 114371 5 | 25:24.72 | 9:29.50 | 114372 | 157096 6 | 34:54.47 | 8:15.58 | 157097 | 194279 7 | 43:10.30 | 3:38.16 | 194280 | 210645 8 | 46:48.46 | 5:35.24 | 210646 | 235794 9 | 52:23.70 | 5:18.67 | 235795 | 259711

Range status and errors

Selected range

Filename D:\Andy Scherrer special sextet feat. Bill Carrothers - Wrong is Right - 2007 - TCB.wav

Peak level 98.8 % Extraction speed 0.2 X Range quality 100.0 % Test CRC 88792E94 Copy CRC 88792E94 Copy OK

No errors occurred

AccurateRip summary

Track 1 accurately ripped (confidence 1) [96129F1A]Track 2 accurately ripped (confidence 1) [29F39597]Track 3 accurately ripped (confidence 1) [194EF5E0]Track 4 accurately ripped (confidence 1) [41750611]Track 5 accurately ripped (confidence 1) [31AAE964]Track 6 accurately ripped (confidence 1) [452FA964]Track 7 accurately ripped (confidence 1) [5E8BEB12]Track 8 accurately ripped (confidence 1) [A6571BF4]Track 9 accurately ripped (confidence 1) [DA753FCC]

All tracks accurately ripped

End of status report

==== Log checksum 6A954C314A567913E86845ABB1FA3682184D5C5A035431E354A87B60237DC9DD ====
 
REM GENRE JazzREM DATE 2007REM DISCID 680D8609REM COMMENT "ExactAudioCopy v1.0b1"PERFORMER "Andy Scherrer special sextet feat. Bill Carrothers"TITLE " Wrong is Right"FILE "Andy Scherrer special sextet feat. Bill Carrothers - Wrong is Right - 2007 - TCB.flac" WAVE TRACK 01 AUDIO TITLE "In Or Out" PERFORMER "Andy Scherrer special sextet feat. Bill Carrothers" FLAGS DCP INDEX 01 00:00:00 TRACK 02 AUDIO TITLE "For Anne" PERFORMER "Andy Scherrer special sextet feat. Bill Carrothers" FLAGS DCP INDEX 00 06:35:74 INDEX 01 06:38:32 TRACK 03 AUDIO TITLE "Jordan Is A Hard Road To Travel" PERFORMER "Andy Scherrer special sextet feat. Bill Carrothers" FLAGS DCP INDEX 00 14:00:19 INDEX 01 14:01:08 TRACK 04 AUDIO TITLE "Freckles" PERFORMER "Andy Scherrer special sextet feat. Bill Carrothers" FLAGS DCP INDEX 00 18:33:16 INDEX 01 18:35:10 TRACK 05 AUDIO TITLE "Waltz For Blaine" PERFORMER "Andy Scherrer special sextet feat. Bill Carrothers" FLAGS DCP INDEX 00 25:21:50 INDEX 01 25:24:72 TRACK 06 AUDIO TITLE "Karma" PERFORMER "Andy Scherrer special sextet feat. Bill Carrothers" FLAGS DCP INDEX 00 34:51:68 INDEX 01 34:54:47 TRACK 07 AUDIO TITLE "Wrong Wrong Wrong" PERFORMER "Andy Scherrer special sextet feat. Bill Carrothers" FLAGS DCP INDEX 00 43:07:44 INDEX 01 43:10:30 TRACK 08 AUDIO TITLE "After The Rain" PERFORMER "Andy Scherrer special sextet feat. Bill Carrothers" FLAGS DCP INDEX 00 46:45:74 INDEX 01 46:48:46 TRACK 09 AUDIO TITLE "Happy House" PERFORMER "Andy Scherrer special sextet feat. Bill Carrothers" FLAGS DCP INDEX 00 52:21:57 INDEX 01 52:23:70
Andy Scherrer, saxes, leader
Jurg Bucher, Domenic Landolf (bass clarinet, tenor saxophone);
Bill Carrothers (piano);
Fabian Gisler (bass instrument);
Dre Pallemaerts (drums)


Трекер:  [ 29-Янв-2012 16:48 ]

  

Скачать .torrent

Размер .torrent файла 14 KB


Размер: 335 MB
Хэш (hash) релиза: c43eb804fea2f7a44efd800df87fe7a7f1cb697a

Еще никто не оставлял запись к записи скачать торрент Andy Scherrer - Wrong is Right - 2007, FLAC . Будь первым!

!Обратная связь