Скачать через торрент музыку Charles Davis - A Tribute To Kenny Dorham - 2010, FLAC бесплатно без регистрации torrent

Если у вас наблюдаются проблемы со скриншотами, переходом по ссылками, скачиванием торрентов - проблемы в блокировщике рекламы AdBlock. #хорошегоДня!


Статистика раздачи
Размер:  427 MB   |    Зарегистрирован:  5 лет 8 месяцев   |    .torrent скачан:  23 раза   |   
Раздают:  1  
   
Загрузка...
 
Автор Сообщение

Umakiro

avatar Umakiro


Charles Davis / A Tribute To Kenny Dorham

Жанр: Hard Bop
Год издания диска: 2010
Издатель (лейбл): TCB
Номер по каталогу: TCB 30402
Страна: USA Goodman, MI
Аудиокодек: FLAC (*.flac)
Тип рипа: image+.cue
Битрейт аудио: lossless
Продолжительность: 01:12:31
Источник (релизер): karelin
Наличие сканов в содержимом раздачи: нет
Треклист:
01. An Oscar For Oscar [07:38]
02. Sao Paolo [08:01]
03. This Love Of Mine [10:20]
04. Tonica [04:37]
05. Butch's Blues [04:41]
06. Short Story [08:27]
07. When Sunny Gets Blue [07:29]
08. Prince Albert [10:42]
09. Hill's Edge [10:33]
 
Exact Audio Copy V1.0 beta 1 from 15. November 2010

EAC extraction logfile from 21. July 2011, 14:37

Charles Davis Allstars / A Tribute To Kenny Dorham - Live at the Byrd's Eye - Basel

Used drive : ATAPI DVD A DH20A4P Adapter: 1 ID: 0

Read mode : SecureUtilize accurate stream : YesDefeat audio cache : YesMake use of C2 pointers : No

Read offset correction : 6Overread into Lead-In and Lead-Out : NoFill up missing offset samples with silence : YesDelete leading and trailing silent blocks : NoNull samples used in CRC calculations : YesUsed interface : Installed external ASPI interface

Used output format : User Defined EncoderSelected bitrate : 1024 kBit/sQuality : HighAdd ID3 tag : NoCommand line compressor : C:\Program Files\Exact Audio Copy\Flac\flac.exeAdditional command line options : -5 -V -T "ARTIST=%a" -T "TITLE=%t" -T "ALBUM=%g" -T "DATE=%y" -T "TRACKNUMBER=%n" -T "GENRE=%m" -T "COMMENT=[oStereo.ru]" %s

TOC of the extracted CD

Track | Start | Length | Start sector | End sector --------------------------------------------------------- 1 | 0:00.00 | 7:38.16 | 0 | 34365 2 | 7:38.16 | 8:01.05 | 34366 | 70445 3 | 15:39.21 | 10:20.40 | 70446 | 116985 4 | 25:59.61 | 4:37.67 | 116986 | 137827 5 | 30:37.53 | 4:41.15 | 137828 | 158917 6 | 35:18.68 | 8:27.08 | 158918 | 196950 7 | 43:46.01 | 7:29.30 | 196951 | 230655 8 | 51:15.31 | 10:42.56 | 230656 | 278861 9 | 61:58.12 | 10:33.62 | 278862 | 326398

Range status and errors

Selected range

Filename D:\Charles Davis All Stars - A Tribute To Kenny Dorham - Live at the Byrd's Eye - Basel - 2010 - TCB.wav

Suspicious position 1:12:31

Peak level 98.8 % Extraction speed 0.4 X Range quality 99.9 % Test CRC 75547361 Copy CRC 75547361 Copy finished

There were errors

AccurateRip summary

Track 1 not present in databaseTrack 2 not present in databaseTrack 3 not present in databaseTrack 4 not present in databaseTrack 5 not present in databaseTrack 6 not present in databaseTrack 7 not present in databaseTrack 8 not present in databaseTrack 9 not present in database

None of the tracks are present in the AccurateRip database

End of status report

==== Log checksum 26F75B1C5A2BC9C550DCD7862ECFB9EDAA9C89A20BB7F243B2ED6E89B6B28FAA ====
 
REM GENRE JazzREM DATE 2010REM DISCID 7010FF09REM COMMENT "ExactAudioCopy v1.0b1"PERFORMER "Charles Davis Allstars"TITLE "A Tribute To Kenny Dorham - Live at the Byrd's Eye - Basel"FILE "Charles Davis All Stars - A Tribute To Kenny Dorham - Live at the Byrd's Eye - Basel - 2010 - TCB.flac" WAVE TRACK 01 AUDIO TITLE "An Oscar For Oscar" PERFORMER "Charles Davis Allstars" INDEX 01 00:00:00 TRACK 02 AUDIO TITLE "Sao Paolo" PERFORMER "Charles Davis Allstars" INDEX 01 07:38:16 TRACK 03 AUDIO TITLE "This Love Of Mine" PERFORMER "Charles Davis Allstars" INDEX 01 15:39:21 TRACK 04 AUDIO TITLE "Tonica" PERFORMER "Charles Davis Allstars" INDEX 01 25:59:61 TRACK 05 AUDIO TITLE "Butch's Blues" PERFORMER "Charles Davis Allstars" INDEX 01 30:37:53 TRACK 06 AUDIO TITLE "Short Story" PERFORMER "Charles Davis Allstars" INDEX 01 35:18:68 TRACK 07 AUDIO TITLE "When Sunny Gets Blue" PERFORMER "Charles Davis Allstars" INDEX 01 43:46:01 TRACK 08 AUDIO TITLE "Prince Albert" PERFORMER "Charles Davis Allstars" INDEX 01 51:15:31 TRACK 09 AUDIO TITLE "Hill's Edge" PERFORMER "Charles Davis Allstars" INDEX 01 61:58:12
Charles Davis (tenor saxophone);
Tom Kirkpatrick (trumpet);
Claus Raible (piano);
Bernd Reiter (drums).


Трекер:  [ 29-Янв-2012 16:48 ]

  

Скачать .torrent

Размер .torrent файла 17 KB


Размер: 427 MB
Хэш (hash) релиза: 7fe9b87870ff40cd72599c511be35343f3a599a9

Еще никто не оставлял запись к записи скачать торрент Charles Davis - A Tribute To Kenny Dorham - 2010, FLAC . Будь первым!

!Обратная связь