Скачать через торрент музыку Dr. Macaroni - Al Dente - 2008, FLAC бесплатно без регистрации torrent

Если у вас наблюдаются проблемы со скриншотами, переходом по ссылками, скачиванием торрентов - проблемы в блокировщике рекламы AdBlock. #хорошегоДня!


Статистика раздачи
Размер:  310 MB   |    Зарегистрирован:  5 лет 8 месяцев   |    .torrent скачан:  25 раз   |   
Раздают:  1  
   
Загрузка...
 
Автор Сообщение

Umakiro

avatar Umakiro


Dr. Macaroni / Al Dente

Жанр: Hard Bop
Год издания диска: 2008
Издатель (лейбл): TCB
Номер по каталогу: TCB 289902
Аудиокодек: FLAC (*.flac)
Тип рипа: image+.cue
Битрейт аудио: lossless
Продолжительность: 00:54:19
Источник (релизер): karelin
Наличие сканов в содержимом раздачи: нет
Треклист:
01. Horace Silver / You've Got To Shake That Thing [03:55]
02. Meters / Cissy Strutt [04:42]
03. Nat Simon / Poinciana [06:00]
04. Dollar Brand / Homecoming Song [05:45]
05. Herbie Nichols / The Happenings [03:51]
06. A. C. Jobim / Stoneflower [07:02]
07. Benny Golson / Blues March [06:29]
08. Fats Waller / Jitterbug Vals [06:50]
09. Jack Dejohnette / New Orleans Strutt [06:54]
10. Herbie Nichols / Twelve Bars [02:47]
 
Exact Audio Copy V1.0 beta 1 from 15. November 2010

EAC extraction logfile from 8. November 2011, 22:08

Dr. Macaroni BRASS BAND / Al Dente

Used drive : ATAPI DVD A DH20A4P Adapter: 1 ID: 0

Read mode : SecureUtilize accurate stream : YesDefeat audio cache : YesMake use of C2 pointers : No

Read offset correction : 6Overread into Lead-In and Lead-Out : NoFill up missing offset samples with silence : YesDelete leading and trailing silent blocks : NoNull samples used in CRC calculations : YesUsed interface : Installed external ASPI interface

Used output format : User Defined EncoderSelected bitrate : 1024 kBit/sQuality : HighAdd ID3 tag : NoCommand line compressor : C:\Program Files\Exact Audio Copy\Flac\flac.exeAdditional command line options : -5 -V -T "ARTIST=%a" -T "TITLE=%t" -T "ALBUM=%g" -T "DATE=%y" -T "TRACKNUMBER=%n" -T "GENRE=%m" -T "COMMENT=[oStereo.ru]" %s

TOC of the extracted CD

Track | Start | Length | Start sector | End sector --------------------------------------------------------- 1 | 0:00.00 | 3:55.14 | 0 | 17638 2 | 3:55.14 | 4:42.38 | 17639 | 38826 3 | 8:37.52 | 6:00.58 | 38827 | 65884 4 | 14:38.35 | 5:45.31 | 65885 | 91790 5 | 20:23.66 | 3:51.06 | 91791 | 109121 6 | 24:14.72 | 7:02.41 | 109122 | 140812 7 | 31:17.38 | 6:29.45 | 140813 | 170032 8 | 37:47.08 | 6:50.04 | 170033 | 200786 9 | 44:37.12 | 6:54.53 | 200787 | 231889 10 | 51:31.65 | 2:47.41 | 231890 | 244455

Range status and errors

Selected range

Filename D:\Dr. Macaroni BRASS BAND - Al Dente - 2008 - [oStereo.ru] - TCB.wav

Peak level 100.0 % Extraction speed 0.1 X Range quality 100.0 % Test CRC DDE54931 Copy CRC DDE54931 Copy OK

No errors occurred

AccurateRip summary

Track 1 not present in databaseTrack 2 not present in databaseTrack 3 not present in databaseTrack 4 not present in databaseTrack 5 not present in databaseTrack 6 not present in databaseTrack 7 not present in databaseTrack 8 not present in databaseTrack 9 not present in databaseTrack 10 not present in database

None of the tracks are present in the AccurateRip database

End of status report

==== Log checksum 3F2D475C25790B020F13FE35F46555D6F3196925D14714D6AD29409A6B0FDC63 ====
 
REM GENRE JazzREM DATE 2008REM DISCID 9A0CBB0AREM COMMENT "ExactAudioCopy v1.0b1"PERFORMER "Dr. Macaroni BRASS BAND"TITLE "Al Dente"FILE "Dr. Macaroni BRASS BAND - Al Dente - 2008 - [oStereo.ru] - TCB.flac" WAVE TRACK 01 AUDIO TITLE "Horace Silver / You've Got To Shake That Thing" PERFORMER "Dr. Macaroni BRASS BAND" INDEX 01 00:00:00 TRACK 02 AUDIO TITLE "Meters / Cissy Strutt " PERFORMER "Dr. Macaroni BRASS BAND" INDEX 00 03:53:14 INDEX 01 03:55:14 TRACK 03 AUDIO TITLE "Nat Simon / Poinciana" PERFORMER "Dr. Macaroni BRASS BAND" INDEX 00 08:35:52 INDEX 01 08:37:52 TRACK 04 AUDIO TITLE "Dollar Brand / Homecoming Song" PERFORMER "Dr. Macaroni BRASS BAND" INDEX 00 14:36:35 INDEX 01 14:38:35 TRACK 05 AUDIO TITLE "Herbie Nichols / The Happenings" PERFORMER "Dr. Macaroni BRASS BAND" INDEX 00 20:21:66 INDEX 01 20:23:66 TRACK 06 AUDIO TITLE "A. C. Jobim / Stoneflower" PERFORMER "Dr. Macaroni BRASS BAND" INDEX 00 24:12:72 INDEX 01 24:14:72 TRACK 07 AUDIO TITLE "Benny Golson / Blues March" PERFORMER "Dr. Macaroni BRASS BAND" INDEX 00 31:15:38 INDEX 01 31:17:38 TRACK 08 AUDIO TITLE "Fats Waller / Jitterbug Vals" PERFORMER "Dr. Macaroni BRASS BAND" INDEX 00 37:45:08 INDEX 01 37:47:08 TRACK 09 AUDIO TITLE "Jack Dejohnette / New Orleans Strutt" PERFORMER "Dr. Macaroni BRASS BAND" INDEX 00 44:35:12 INDEX 01 44:37:12 TRACK 10 AUDIO TITLE "Herbie Nichols / Twelve Bars" PERFORMER "Dr. Macaroni BRASS BAND" INDEX 00 51:29:65 INDEX 01 51:31:65
Peter Dieterle, snare, bells, leader
Jorge Vistel, trumpet
Roman Filiù, altosax
Tom Johnson, trombone, arr
Chiaki Mawatari, tuba
Ronnie George, bass-drum


Трекер:  [ 29-Янв-2012 16:47 ]

  

Скачать .torrent

Размер .torrent файла 13 KB


Размер: 310 MB
Хэш (hash) релиза: f49c081fdf55ed36632c6c1af535d138a8e321bd

Еще никто не оставлял запись к записи скачать торрент Dr. Macaroni - Al Dente - 2008, FLAC . Будь первым!

!Обратная связь