Скачать через торрент музыку Twobones - "Live 1988" Get That Groove - 2007, FLAC бесплатно без регистрации torrent

Если у вас наблюдаются проблемы со скриншотами, переходом по ссылками, скачиванием торрентов - проблемы в блокировщике рекламы AdBlock. #хорошегоДня!


Статистика раздачи
Размер:  432 MB   |    Зарегистрирован:  5 лет 8 месяцев   |    .torrent скачан:  21 раз   |   
Раздают:  1  
   
Загрузка...
 
Автор Сообщение

Umakiro

avatar Umakiro


Twobones / "Live 1988" Get That Groove

Жанр: Hard Bop, Mainstream
Год издания диска: 2007
Издатель (лейбл): TCB
Номер по каталогу: TCB 27302
Аудиокодек: FLAC (*.flac)
Тип рипа: image+.cue
Битрейт аудио: lossless
Продолжительность: 01:12:59
Источник (релизер): karelin
Наличие сканов в содержимом раздачи: нет
Треклист:
01. Paul's Blues [09:21]
02. In A Mellow Tone [06:05]
03. Recherche [06:23]
04. Menaitole [07:09]
05. Cat Eyes [03:53]
06. Perdidio [08:56]
07. Once In A While [07:57]
08. Datti Una Bossa [06:48]
09. On The Trail [07:14]
10. Tangerine [09:08]
 
Exact Audio Copy V1.0 beta 1 from 15. November 2010

EAC extraction logfile from 30. June 2011, 2:13

Twobones / Get that Groove

Used drive : ATAPI DVD A DH20A4P Adapter: 1 ID: 0

Read mode : SecureUtilize accurate stream : YesDefeat audio cache : YesMake use of C2 pointers : No

Read offset correction : 6Overread into Lead-In and Lead-Out : NoFill up missing offset samples with silence : YesDelete leading and trailing silent blocks : NoNull samples used in CRC calculations : YesUsed interface : Installed external ASPI interface

Used output format : User Defined EncoderSelected bitrate : 1024 kBit/sQuality : HighAdd ID3 tag : NoCommand line compressor : C:\Program Files\Exact Audio Copy\Flac\flac.exeAdditional command line options : -5 -V -T "ARTIST=%a" -T "TITLE=%t" -T "ALBUM=%g" -T "DATE=%y" -T "TRACKNUMBER=%n" -T "GENRE=%m" -T "COMMENT=EAC FLAC -5" %s

TOC of the extracted CD

Track | Start | Length | Start sector | End sector --------------------------------------------------------- 1 | 0:00.00 | 9:21.56 | 0 | 42130 2 | 9:21.56 | 6:05.69 | 42131 | 69574 3 | 15:27.50 | 6:23.19 | 69575 | 98318 4 | 21:50.69 | 7:09.04 | 98319 | 130497 5 | 28:59.73 | 3:53.55 | 130498 | 148027 6 | 32:53.53 | 8:56.05 | 148028 | 188232 7 | 41:49.58 | 7:57.74 | 188233 | 224081 8 | 49:47.57 | 6:48.73 | 224082 | 254754 9 | 56:36.55 | 7:14.74 | 254755 | 287378 10 | 63:51.54 | 9:08.20 | 287379 | 328498

Range status and errors

Selected range

Filename D:\Twobones - Get that Groove - 1988 - [oStereo.ru] - TCB.wav

Peak level 99.9 % Extraction speed 0.4 X Range quality 100.0 % Test CRC 4BD301B8 Copy CRC 4BD301B8 Copy OK

No errors occurred

AccurateRip summary

Track 1 not present in databaseTrack 2 not present in databaseTrack 3 not present in databaseTrack 4 not present in databaseTrack 5 not present in databaseTrack 6 not present in databaseTrack 7 not present in databaseTrack 8 not present in databaseTrack 9 not present in databaseTrack 10 not present in database

None of the tracks are present in the AccurateRip database

End of status report

==== Log checksum B97CB77E5640E9ACCED6EC630C74D33F4E5B230D3F5609B16F8DB51A06A16A56 ====
 
REM GENRE JazzREM DATE 1988REM DISCID 9B111B0AREM COMMENT "ExactAudioCopy v1.0b1"PERFORMER "Twobones"TITLE "Get that Groove"FILE "Twobones - Get that Groove - 1988 - [oStereo.ru] - TCB.flac" WAVE TRACK 01 AUDIO TITLE "Paul's Blues" PERFORMER "Twobones" INDEX 01 00:00:00 TRACK 02 AUDIO TITLE "In A Mellow Tone" PERFORMER "Twobones" INDEX 01 09:21:56 TRACK 03 AUDIO TITLE "Recherche" PERFORMER "Twobones" INDEX 01 15:27:50 TRACK 04 AUDIO TITLE "Menaitole" PERFORMER "Twobones" INDEX 01 21:50:69 TRACK 05 AUDIO TITLE "Cat Eyes" PERFORMER "Twobones" INDEX 01 28:59:73 TRACK 06 AUDIO TITLE "Perdidio" PERFORMER "Twobones" INDEX 01 32:53:53 TRACK 07 AUDIO TITLE "Once In A While" PERFORMER "Twobones" INDEX 01 41:49:58 TRACK 08 AUDIO TITLE "Datti Una Bossa" PERFORMER "Twobones" INDEX 01 49:47:57 TRACK 09 AUDIO TITLE "On The Trail" PERFORMER "Twobones" INDEX 01 56:36:55 TRACK 10 AUDIO TITLE "Tangerine" PERFORMER "Twobones" INDEX 01 63:51:54
Danilo Moccia (trombone);
Paul Haag (trombone);
Peter Schmidlin (drums);
Isla Eckinger (bass);
Tutilo Odermatt (piano)


Трекер:  [ 29-Янв-2012 16:47 ]

  

Скачать .torrent

Размер .torrent файла 17 KB


Размер: 432 MB
Хэш (hash) релиза: 0ddc30b1e9bcc101db27132ef53c8724b9cfc41e

Еще никто не оставлял запись к записи скачать торрент Twobones - "Live 1988" Get That Groove - 2007, FLAC . Будь первым!

!Обратная связь