Скачать через торрент музыку The Winners - Live at the Dolder Grand Hotel, Zurich - 2000, FLAC бесплатно без регистрации torrent

Если у вас наблюдаются проблемы со скриншотами, переходом по ссылками, скачиванием торрентов - проблемы в блокировщике рекламы AdBlock. #хорошегоДня!


Статистика раздачи
Размер:  357 MB   |    Зарегистрирован:  5 лет 8 месяцев   |    .torrent скачан:  21 раз   |   
Раздают:  1  
   
Загрузка...
 
Автор Сообщение

Umakiro

avatar Umakiro


The Winners / Live at the Dolder Grand Hotel, Zurich

Жанр: Hard Bop
Год издания диска: 2000
Издатель (лейбл): TCB
Номер по каталогу: TCB 20992
Аудиокодек: FLAC (*.flac)
Тип рипа: image+.cue
Битрейт аудио: lossless
Продолжительность: 01:02:54
Источник (релизер): karelin
Наличие сканов в содержимом раздачи: нет
Треклист:
01. Autumn Leaves [09:23]
02. Invitation [10:48]
03. In Your Own Sweet Way [07:25]
04. My Foolish Heart [14:34]
05. Summertime [05:47]
06. The Days of Wine and Roses [07:22]
07. If I Should Lose You [07:32]
 
Exact Audio Copy V1.0 beta 1 from 15. November 2010

EAC extraction logfile from 11. July 2011, 15:00

The Winners / Live at the Dolder Grand Hotel Zurich

Used drive : ATAPI DVD A DH20A4P Adapter: 1 ID: 0

Read mode : SecureUtilize accurate stream : YesDefeat audio cache : YesMake use of C2 pointers : No

Read offset correction : 6Overread into Lead-In and Lead-Out : NoFill up missing offset samples with silence : YesDelete leading and trailing silent blocks : NoNull samples used in CRC calculations : YesUsed interface : Installed external ASPI interface

Used output format : User Defined EncoderSelected bitrate : 1024 kBit/sQuality : HighAdd ID3 tag : NoCommand line compressor : C:\Program Files\Exact Audio Copy\Flac\flac.exeAdditional command line options : -5 -V -T "ARTIST=%a" -T "TITLE=%t" -T "ALBUM=%g" -T "DATE=%y" -T "TRACKNUMBER=%n" -T "GENRE=%m" -T "COMMENT=[oStereo.ru]" %s

TOC of the extracted CD

Track | Start | Length | Start sector | End sector --------------------------------------------------------- 1 | 0:00.20 | 9:23.65 | 20 | 42309 2 | 9:24.10 | 10:48.16 | 42310 | 90925 3 | 20:12.26 | 7:25.09 | 90926 | 124309 4 | 27:37.35 | 14:34.47 | 124310 | 189906 5 | 42:12.07 | 5:47.37 | 189907 | 215968 6 | 47:59.44 | 7:22.24 | 215969 | 249142 7 | 55:21.68 | 7:32.48 | 249143 | 283090

Range status and errors

Selected range

Filename D:\The Winners - Live at the Dolder Grand Hotel Zurich - 2000 - TCB.wav

Peak level 98.6 % Extraction speed 0.3 X Range quality 99.9 % Test CRC B6230079 Copy CRC B6230079 Copy OK

No errors occurred

AccurateRip summary

Track 1 not present in databaseTrack 2 not present in databaseTrack 3 not present in databaseTrack 4 not present in databaseTrack 5 not present in databaseTrack 6 not present in databaseTrack 7 not present in database

None of the tracks are present in the AccurateRip database

End of status report

==== Log checksum 0FA6CD3CE6FCFAD6D37C71691EF5F46B659F9C8B800AE3454D1D363F1E43D378 ====
 
REM GENRE JazzREM DATE 2000REM DISCID 5C0EBE07REM COMMENT "ExactAudioCopy v1.0b1"PERFORMER "The Winners"TITLE "Live at the Dolder Grand Hotel Zurich"FILE "The Winners - Live at the Dolder Grand Hotel Zurich - 2000 - TCB.flac" WAVE TRACK 01 AUDIO TITLE "Autumn Leaves" PERFORMER "The Winners" FLAGS DCP INDEX 00 00:00:00 INDEX 01 00:00:20 TRACK 02 AUDIO TITLE "Invitation" PERFORMER "The Winners" FLAGS DCP INDEX 00 09:22:40 INDEX 01 09:24:10 TRACK 03 AUDIO TITLE "In Your Own Sweet Way" PERFORMER "The Winners" FLAGS DCP INDEX 00 20:10:56 INDEX 01 20:12:26 TRACK 04 AUDIO TITLE "My Foolish Heart" PERFORMER "The Winners" FLAGS DCP INDEX 00 27:35:65 INDEX 01 27:37:35 TRACK 05 AUDIO TITLE "Summertime" PERFORMER "The Winners" FLAGS DCP INDEX 00 42:10:37 INDEX 01 42:12:07 TRACK 06 AUDIO TITLE "The Days of Wine and Roses" PERFORMER "The Winners" FLAGS DCP INDEX 00 47:57:74 INDEX 01 47:59:44 TRACK 07 AUDIO TITLE "If I Should Lose You" PERFORMER "The Winners" FLAGS DCP INDEX 00 55:20:23 INDEX 01 55:21:68
Franco Ambrosetti (trumpet, flugelhorn);
Thierry Lang (piano);
Heiri Kanzig (acoustic bass);
Peter Schmidlin (drums)
.


Трекер:  [ 29-Янв-2012 16:47 ]

  

Скачать .torrent

Размер .torrent файла 14 KB


Размер: 357 MB
Хэш (hash) релиза: 9fd1440e5d573ed1087bbf8ca21dada83f45f223

Еще никто не оставлял запись к записи скачать торрент The Winners - Live at the Dolder Grand Hotel, Zurich - 2000, FLAC . Будь первым!

!Обратная связь