Скачать через торрент музыку Dado Moroni Trio - Shapes - 2010, FLAC бесплатно без регистрации torrent

Если у вас наблюдаются проблемы со скриншотами, переходом по ссылками, скачиванием торрентов - проблемы в блокировщике рекламы AdBlock. #хорошегоДня!


Статистика раздачи
Размер:  385 MB   |    Зарегистрирован:  5 лет 8 месяцев   |    .torrent скачан:  18 раз   |   
Раздают:  1  
   
Загрузка...
 
Автор Сообщение

Umakiro

avatar Umakiro


Dado Moroni Trio / Shapes

Жанр: Post-Bop
Год издания диска: 2010
Издатель (лейбл): TCB
Номер по каталогу: TCB 30302
Аудиокодек: FLAC (*.flac)
Тип рипа: image+.cue
Битрейт аудио: lossless
Продолжительность: 01:04:14
Источник (релизер): karelin
Наличие сканов в содержимом раздачи: нет
Треклист:
01. / Ballade Pour Gianni [05:35]
02. / Brother Alfred [09:33]
03. / Desafinado [08:58]
04. / The Duck And The Duchess [09:13]
05. / Love Dance [07:37]
06. / F.B.S. [05:21]
07. / For The Time Being [06:49]
08. / Shark Attack [06:12]
09. / Here's To Life [04:51]
 
Exact Audio Copy V1.0 beta 1 from 15. November 2010

EAC extraction logfile from 22. September 2011, 16:57

Dado Moroni Trio / Shapes

Used drive : ATAPI DVD A DH20A4P Adapter: 1 ID: 0

Read mode : SecureUtilize accurate stream : YesDefeat audio cache : YesMake use of C2 pointers : No

Read offset correction : 6Overread into Lead-In and Lead-Out : NoFill up missing offset samples with silence : YesDelete leading and trailing silent blocks : NoNull samples used in CRC calculations : YesUsed interface : Installed external ASPI interface

Used output format : User Defined EncoderSelected bitrate : 1024 kBit/sQuality : HighAdd ID3 tag : NoCommand line compressor : C:\Program Files\Exact Audio Copy\Flac\flac.exeAdditional command line options : -5 -V -T "ARTIST=%a" -T "TITLE=%t" -T "ALBUM=%g" -T "DATE=%y" -T "TRACKNUMBER=%n" -T "GENRE=%m" -T "COMMENT=[oStereo.ru]" %s

TOC of the extracted CD

Track | Start | Length | Start sector | End sector --------------------------------------------------------- 1 | 0:00.00 | 5:35.54 | 0 | 25178 2 | 5:35.54 | 9:33.59 | 25179 | 68212 3 | 15:09.38 | 8:58.27 | 68213 | 108589 4 | 24:07.65 | 9:13.74 | 108590 | 150138 5 | 33:21.64 | 7:37.25 | 150139 | 184438 6 | 40:59.14 | 5:21.41 | 184439 | 208554 7 | 46:20.55 | 6:49.73 | 208555 | 239302 8 | 53:10.53 | 6:12.66 | 239303 | 267268 9 | 59:23.44 | 4:51.31 | 267269 | 289124

Range status and errors

Selected range

Filename D:\Dado Moroni Trio - Shapes - [oStereo.ru] - 2010- TCB.wav

Peak level 100.0 % Extraction speed 0.2 X Range quality 100.0 % Test CRC D4CDFAD6 Copy CRC D4CDFAD6 Copy OK

No errors occurred

AccurateRip summary

Track 1 accurately ripped (confidence 1) [A2A58A40]Track 2 accurately ripped (confidence 1) [5E0B24F1]Track 3 accurately ripped (confidence 1) [22B40A0A]Track 4 accurately ripped (confidence 1) [66B3C38F]Track 5 accurately ripped (confidence 1) [EA549DFC]Track 6 accurately ripped (confidence 1) [61EAC1DF]Track 7 accurately ripped (confidence 1) [F84976CC]Track 8 accurately ripped (confidence 1) [0C098DAA]Track 9 accurately ripped (confidence 1) [F96E0A69]

All tracks accurately ripped

End of status report

==== Log checksum DE90698485CD829F80950930F805A847AAA741BE6C1932530A939FFB4F72D45D ====
 
REM GENRE JazzREM DATE 2010REM DISCID 730F0F09REM COMMENT "ExactAudioCopy v1.0b1"PERFORMER "Dado Moroni Trio"TITLE "Shapes"FILE "Dado Moroni Trio - Shapes - [oStereo.ru] - 2010- TCB.flac" WAVE TRACK 01 AUDIO TITLE " / Ballade Pour Gianni" PERFORMER "Dado Moroni Trio" INDEX 01 00:00:00 TRACK 02 AUDIO TITLE " / Brother Alfred" PERFORMER "Dado Moroni Trio" INDEX 01 05:35:54 TRACK 03 AUDIO TITLE " / Desafinado" PERFORMER "Dado Moroni Trio" INDEX 01 15:09:38 TRACK 04 AUDIO TITLE " / The Duck And The Duchess" PERFORMER "Dado Moroni Trio" INDEX 01 24:07:65 TRACK 05 AUDIO TITLE " / Love Dance" PERFORMER "Dado Moroni Trio" INDEX 01 33:21:64 TRACK 06 AUDIO TITLE " / F.B.S." PERFORMER "Dado Moroni Trio" INDEX 01 40:59:14 TRACK 07 AUDIO TITLE " / For The Time Being" PERFORMER "Dado Moroni Trio" INDEX 01 46:20:55 TRACK 08 AUDIO TITLE " / Shark Attack" PERFORMER "Dado Moroni Trio" INDEX 01 53:10:53 TRACK 09 AUDIO TITLE " / Here's To Life" PERFORMER "Dado Moroni Trio" INDEX 01 59:23:44
[spoiler="Состав"]
Dado Moroni (piano)
Peter Washington (bass)
Enzo Zirilli (drums)
[/spoiler]

Трекер:  [ 29-Янв-2012 16:46 ]

  

Скачать .torrent

Размер .torrent файла 15 KB


Размер: 385 MB
Хэш (hash) релиза: 7a9e1d6d67c38de335177739e18804e194945179

Еще никто не оставлял запись к записи скачать торрент Dado Moroni Trio - Shapes - 2010, FLAC . Будь первым!

!Обратная связь