Скачать через торрент музыку The John Basile Quartet - The Desmond Project - 1997, FLAC бесплатно без регистрации torrent

Если у вас наблюдаются проблемы со скриншотами, переходом по ссылками, скачиванием торрентов - проблемы в блокировщике рекламы AdBlock. #хорошегоДня!


Статистика раздачи
Размер:  297 MB   |    Зарегистрирован:  5 лет 8 месяцев   |    .torrent скачан:  26 раз   |   
Раздают:  1  
   
Загрузка...
 
Автор Сообщение

Umakiro

avatar Umakiro


The John Basile Quartet / The Desmond Project

Жанр: Mainstream Jazz
Страна-производитель диска: USA
Год издания диска: 1997
Издатель (лейбл): Chesky
Номер по каталогу: JD 156
Страна: USA Boston, MA
Аудиокодек: FLAC (*.flac)
Тип рипа: image+.cue
Битрейт аудио: lossless
Продолжительность: 00:58:41
Источник (релизер): karelin
Наличие сканов в содержимом раздачи: нет
Треклист:
01. Desmond Blue [04:17]
02. Line for Lyons [03:57]
03. You Go to my Head [05:16]
04. Darn That Dream [05:36]
05. For All We Know [05:26]
06. East of the Sun [04:17]
07. My Funny Valentine [06:07]
08. Wendy [04:41]
09. Alone Together [04:39]
10. Warm Valley [05:50]
11. In Your Own Sweet Way [05:25]
12. Take Five [03:03]
 
Exact Audio Copy V1.0 beta 1 from 15. November 2010

EAC extraction logfile from 1. December 2010, 14:35

John Basile Quartet / Desmond Project - Chesky 1997

Used drive : ATAPI DVD A DH20A4P Adapter: 1 ID: 0

Read mode : SecureUtilize accurate stream : YesDefeat audio cache : YesMake use of C2 pointers : No

Read offset correction : 6Overread into Lead-In and Lead-Out : NoFill up missing offset samples with silence : YesDelete leading and trailing silent blocks : NoNull samples used in CRC calculations : YesUsed interface : Installed external ASPI interface

Used output format : User Defined EncoderSelected bitrate : 1024 kBit/sQuality : HighAdd ID3 tag : NoCommand line compressor : C:\Program Files\Exact Audio Copy\Flac\flac.exeAdditional command line options : -8 -V -T "ARTIST=%a" -T "TITLE=%t" -T "ALBUM=%g" -T "DATE=%y" -T "TRACKNUMBER=%n" -T "GENRE=%m" -T "COMMENT=EAC FLAC -8" %s

TOC of the extracted CD

Track | Start | Length | Start sector | End sector --------------------------------------------------------- 1 | 0:00.30 | 4:17.64 | 30 | 19368 2 | 4:18.19 | 3:57.69 | 19369 | 37212 3 | 8:16.13 | 5:16.67 | 37213 | 60979 4 | 13:33.05 | 5:36.19 | 60980 | 86198 5 | 19:09.24 | 5:26.39 | 86199 | 110687 6 | 24:35.63 | 4:17.69 | 110688 | 130031 7 | 28:53.57 | 6:07.59 | 130032 | 157615 8 | 35:01.41 | 4:41.74 | 157616 | 178764 9 | 39:43.40 | 4:39.41 | 178765 | 199730 10 | 44:23.06 | 5:50.25 | 199731 | 226005 11 | 50:13.31 | 5:25.29 | 226006 | 250409 12 | 55:38.60 | 3:03.25 | 250410 | 264159

Range status and errors

Selected range

Filename D:\John Basile Quartet - Desmond Project - 1997 - Chesky.wav

Peak level 99.9 % Extraction speed 0.1 X Range quality 100.0 % Test CRC 61D0F87E Copy CRC 61D0F87E Copy OK

No errors occurred

AccurateRip summary

Track 1 accurately ripped (confidence 12) [E5919A2C]Track 2 accurately ripped (confidence 12) [3C83CD36]Track 3 accurately ripped (confidence 12) [F749995F]Track 4 accurately ripped (confidence 12) [B8B9E3F4]Track 5 accurately ripped (confidence 12) [65DACB80]Track 6 accurately ripped (confidence 12) [0399AFE7]Track 7 accurately ripped (confidence 11) [7C7165DB]Track 8 accurately ripped (confidence 11) [A7F32E27]Track 9 accurately ripped (confidence 11) [4FA613C6]Track 10 accurately ripped (confidence 11) [6509662C]Track 11 accurately ripped (confidence 11) [3FB6D271]Track 12 accurately ripped (confidence 12) [88FC0FB3]

All tracks accurately ripped

End of status report

==== Log checksum 77A9BB477C0C1DF73B52CB4581A0618BD3DF086C0D8F9133A860CD0DA996DF31 ====
 
REM GENRE JazzREM DATE 1997REM DISCID 960DC20CREM COMMENT "ExactAudioCopy v1.0b1"PERFORMER "John Basile Quartet"TITLE "Desmond Project - Chesky 1997"FILE "John Basile Quartet - Desmond Project - 1997 - Chesky.flac" WAVE TRACK 01 AUDIO TITLE "Desmond Blue" PERFORMER "John Basile Quartet" INDEX 00 00:00:00 INDEX 01 00:00:30 TRACK 02 AUDIO TITLE "Line for Lyons" PERFORMER "John Basile Quartet" INDEX 01 04:18:19 TRACK 03 AUDIO TITLE "You Go to my Head" PERFORMER "John Basile Quartet" INDEX 01 08:16:13 TRACK 04 AUDIO TITLE "Darn That Dream" PERFORMER "John Basile Quartet" INDEX 01 13:33:05 TRACK 05 AUDIO TITLE "For All We Know" PERFORMER "John Basile Quartet" INDEX 01 19:09:24 TRACK 06 AUDIO TITLE "East of the Sun" PERFORMER "John Basile Quartet" INDEX 01 24:35:63 TRACK 07 AUDIO TITLE "My Funny Valentine" PERFORMER "John Basile Quartet" INDEX 01 28:53:57 TRACK 08 AUDIO TITLE "Wendy" PERFORMER "John Basile Quartet" INDEX 01 35:01:41 TRACK 09 AUDIO TITLE "Alone Together" PERFORMER "John Basile Quartet" INDEX 01 39:43:40 TRACK 10 AUDIO TITLE "Warm Valley" PERFORMER "John Basile Quartet" INDEX 01 44:23:06 TRACK 11 AUDIO TITLE "In Your Own Sweet Way" PERFORMER "John Basile Quartet" INDEX 01 50:13:31 TRACK 12 AUDIO TITLE "Take Five" PERFORMER "John Basile Quartet" INDEX 01 55:38:60
 
-----------------------

DON'T MODIFY THIS FILE

-----------------------

PERFORMER: auCDtect Task Manager, ver. 1.5.1RC6 build 1.5.1.7Copyright (c) 2008-2010 y-soft. All rights reservedhttp://y-soft.org

ANALYZER: auCDtect: CD records authenticity detector, version 0.8.2Copyright (c) 2004 Oleg Berngardt. All rights reserved.Copyright (c) 2004 Alexander Djourik. All rights reserved.

FILE: John Basile Quartet - Desmond Project - 1997 - Chesky.flac Size: 310765976 Hash: FFE8B2BEE8D3A582EFC2E69C3CCA4494 Accuracy: -m0 Conclusion: CDDA 100% Signature: 54BC7A8371BCC97FC8049526E08B6FB8CE659544
John Basile Quartet:
John Basile (guitar)
Allen Mezquida (alto saxophone)
David Finck (bass)
Payton Crossley (drums)


Трекер:  [ 29-Янв-2012 16:46 ]

  

Скачать .torrent

Размер .torrent файла 12 KB


Размер: 297 MB
Хэш (hash) релиза: f15e63bca48ef58eb07f98a2792978c4ae0a3407

Еще никто не оставлял запись к записи скачать торрент The John Basile Quartet - The Desmond Project - 1997, FLAC . Будь первым!

!Обратная связь