Скачать через торрент музыку Christophe Dal Sasso Big Band - Pretextes - 2011, FLAC бесплатно без регистрации torrent

Если у вас наблюдаются проблемы со скриншотами, переходом по ссылками, скачиванием торрентов - проблемы в блокировщике рекламы AdBlock. #хорошегоДня!


Статистика раздачи
Размер:  428 MB   |    Зарегистрирован:  5 лет 8 месяцев   |    .torrent скачан:  20 раз   |   
Раздают:  1  
   
Загрузка...
 
Автор Сообщение

Umakiro

avatar Umakiro


Christophe Dal Sasso* Big Band / *Pretextes

Жанр: Modern Jazz
Страна-производитель диска: E.U.
Год издания диска: 2011
Издатель (лейбл): Discograph
Номер по каталогу: 14846
Аудиокодек: FLAC (*.flac)
Тип рипа: tracks+.cue
Битрейт аудио: lossless
Продолжительность: 01:04:19
Источник (релизер): bastun
Наличие сканов в содержимом раздачи: да
Треклист:
01. Rondo [04:56]
02. Potomac River [07:17]
03. Morning Sound [04:55]
04. La Cote De Lumiere [06:16]
05. Tourbillon [05:53]
06. Pluie de Cendre [09:43]
07. For Yusef And John (Intro) [03:43]
08. For Yusef And John [06:36]
09. Pair ou Impair [05:48]
10. Pretexte [07:54]
11. L'Aube [02:35]
 
Exact Audio Copy V0.99 prebeta 5 from 4. May 2009

EAC extraction logfile from 9. June 2011, 12:34

Christophe Dal Sasso / Prйtextes

Used drive : PHILIPS SPD3400CC Adapter: 3 ID: 0

Read mode : SecureUtilize accurate stream : YesDefeat audio cache : YesMake use of C2 pointers : No

Read offset correction : 6Overread into Lead-In and Lead-Out : NoFill up missing offset samples with silence : YesDelete leading and trailing silent blocks : NoNull samples used in CRC calculations : YesUsed interface : Installed external ASPI interfaceGap handling : Appended to previous track

Used output format : User Defined EncoderSelected bitrate : 768 kBit/sQuality : HighAdd ID3 tag : NoCommand line compressor : C:\Program Files (x86)\Exact Audio Copy\Flac\flac.exeAdditional command line options : -8 -V -T "ARTIST=%a" -T "TITLE=%t" -T "ALBUM=%g" -T "DATE=%y" -T "TRACKNUMBER=%n" -T "TOTALTRACKS=%x" -T "GENRE=%m" -T "ALBUM ARTIST=%v" -T "ALBUMARTIST=%v" -T "COMMENT=EAC V0.99 prebeta 5, Secure Mode, Test & Copy, Accurat

TOC of the extracted CD

Track | Start | Length | Start sector | End sector --------------------------------------------------------- 1 | 0:00.00 | 4:58.22 | 0 | 22371 2 | 4:58.22 | 7:19.02 | 22372 | 55298 3 | 12:17.24 | 4:57.26 | 55299 | 77599 4 | 17:14.50 | 6:16.33 | 77600 | 105832 5 | 23:31.08 | 5:55.61 | 105833 | 132518 6 | 29:26.69 | 9:46.04 | 132519 | 176472 7 | 39:12.73 | 3:43.61 | 176473 | 193258 8 | 42:56.59 | 6:38.41 | 193259 | 223149 9 | 49:35.25 | 5:50.36 | 223150 | 249435 10 | 55:25.61 | 7:56.01 | 249436 | 285136 11 | 63:21.62 | 2:35.68 | 285137 | 296829

Track 1

Filename C:\Rips\01 - Rondo.wav

Pre-gap length 0:00:02.00

Peak level 90.7 % Track quality 100.0 % Test CRC A1275FAC Copy CRC A1275FAC Track not present in AccurateRip database Copy OK

Track 2

Filename C:\Rips\02 - Potomac River.wav

Pre-gap length 0:00:02.00

Peak level 97.1 % Track quality 100.0 % Test CRC CB41E6C2 Copy CRC CB41E6C2 Track not present in AccurateRip database Copy OK

Track 3

Filename C:\Rips\03 - Morning Sound.wav

Pre-gap length 0:00:02.00

Peak level 98.2 % Track quality 100.0 % Test CRC B2F64605 Copy CRC B2F64605 Track not present in AccurateRip database Copy OK

Track 4

Filename C:\Rips\04 - La Cфte de Lumiиre.wav

Pre-gap length 0:00:02.00

Peak level 98.8 % Track quality 100.0 % Test CRC 9DC4C5A8 Copy CRC 9DC4C5A8 Track not present in AccurateRip database Copy OK

Track 5

Filename C:\Rips\05 - Tourbillon.wav

Pre-gap length 0:00:01.96

Peak level 98.8 % Track quality 100.0 % Test CRC 1F146B9D Copy CRC 1F146B9D Track not present in AccurateRip database Copy OK

Track 6

Filename C:\Rips\06 - Pluie de Cendre.wav

Pre-gap length 0:00:01.98

Peak level 98.6 % Track quality 100.0 % Test CRC 6618A3BC Copy CRC 6618A3BC Track not present in AccurateRip database Copy OK

Track 7

Filename C:\Rips\07 - For Yusef And John (Intro).wav

Pre-gap length 0:00:03.00

Peak level 95.6 % Track quality 99.9 % Test CRC 57E92AEC Copy CRC 57E92AEC Track not present in AccurateRip database Copy OK

Track 8

Filename C:\Rips\08 - For Yusef And John.wav

Peak level 98.8 % Track quality 100.0 % Test CRC A6861504 Copy CRC A6861504 Track not present in AccurateRip database Copy OK

Track 9

Filename C:\Rips\09 - Pair ou Impair.wav

Pre-gap length 0:00:02.00

Peak level 98.8 % Track quality 100.0 % Test CRC 6DD2F566 Copy CRC 6DD2F566 Track not present in AccurateRip database Copy OK

Track 10

Filename C:\Rips\10 - Pretexte.wav

Pre-gap length 0:00:02.00

Peak level 98.8 % Track quality 100.0 % Test CRC 9F2C6260 Copy CRC 9F2C6260 Track not present in AccurateRip database Copy OK

Track 11

Filename C:\Rips\11 - L'Aube.wav

Pre-gap length 0:00:02.00

Peak level 87.3 % Track quality 100.0 % Test CRC 9D61A546 Copy CRC 9D61A546 Track not present in AccurateRip database Copy OK

None of the tracks are present in the AccurateRip database

No errors occurred

End of status report
 
REM GENRE JazzREM DATE 2011REM DISCID 9B0F750BREM COMMENT "ExactAudioCopy v0.99pb5"PERFORMER "Christophe Dal Sasso"TITLE "Pretextes"FILE "01 - Rondo.wav" WAVE TRACK 01 AUDIO TITLE "Rondo" PERFORMER "Christophe Dal Sasso" INDEX 01 00:00:00 TRACK 02 AUDIO TITLE "Potomac River" PERFORMER "Christophe Dal Sasso" INDEX 00 04:56:22FILE "02 - Potomac River.wav" WAVE INDEX 01 00:00:00 TRACK 03 AUDIO TITLE "Morning Sound" PERFORMER "Christophe Dal Sasso" INDEX 00 07:17:02FILE "03 - Morning Sound.wav" WAVE INDEX 01 00:00:00 TRACK 04 AUDIO TITLE "La Cote de Lumiere" PERFORMER "Christophe Dal Sasso" INDEX 00 04:55:26FILE "04 - La Cote de Lumiиre.wav" WAVE INDEX 01 00:00:00 TRACK 05 AUDIO TITLE "Tourbillon" PERFORMER "Christophe Dal Sasso" INDEX 00 06:14:36FILE "05 - Tourbillon.wav" WAVE INDEX 01 00:00:00 TRACK 06 AUDIO TITLE "Pluie de Cendre" PERFORMER "Christophe Dal Sasso" INDEX 00 05:53:62FILE "06 - Pluie de Cendre.wav" WAVE INDEX 01 00:00:00 TRACK 07 AUDIO TITLE "For Yusef And John (Intro)" PERFORMER "Christophe Dal Sasso" INDEX 00 09:43:04FILE "07 - For Yusef And John (Intro).wav" WAVE INDEX 01 00:00:00FILE "08 - For Yusef And John.wav" WAVE TRACK 08 AUDIO TITLE "For Yusef And John" PERFORMER "Christophe Dal Sasso" INDEX 01 00:00:00 TRACK 09 AUDIO TITLE "Pair ou Impair" PERFORMER "Christophe Dal Sasso" INDEX 00 06:36:41FILE "09 - Pair ou Impair.wav" WAVE INDEX 01 00:00:00 TRACK 10 AUDIO TITLE "Pretexte" PERFORMER "Christophe Dal Sasso" INDEX 00 05:48:36FILE "10 - Pretexte.wav" WAVE INDEX 01 00:00:00 TRACK 11 AUDIO TITLE "L'Aube" PERFORMER "Christophe Dal Sasso" INDEX 00 07:54:01FILE "11 - L'Aube.wav" WAVE INDEX 01 00:00:00
Christophe Dal Sasso : composition, arrangement , flûte, flûte bambou basse , flûte létone, Flûte indienne, clochettes (*)
Julien Alour : trompette, bugle, flûte thaïlandaise (2)
Vincent Echard : trompette, bugle, clave (6)
Dominique Mandin : saxophone Alto, flûte alto, shaker (8)
Sophie Alour: saxophone ténor, clarinette, wood block (1)
David El-Malek : saxophone ténor,saxophone soprano, tambourin (3)
Thomas Savy : clarinette basse (7)
Merrill Jerome Edwards : trombone (4)
Fidel Fourneyron : trombone, flûte africaine (9)
Franck Agulhon : batterie (11)
Manuel Marches : contrebasse (10)
Pierre de Bethmann : piano, fender rhodes (5)


Трекер:  [ 29-Янв-2012 16:46 ]

  

Скачать .torrent

Размер .torrent файла 18 KB


Размер: 428 MB
Хэш (hash) релиза: ffacba30e3efdb1220327119728e1fcd1f12b7d3

Еще никто не оставлял запись к записи скачать торрент Christophe Dal Sasso Big Band - Pretextes - 2011, FLAC . Будь первым!

!Обратная связь