Скачать через торрент музыку Jack Wilson - Something Personal - 1996, FLAC бесплатно без регистрации torrent

Если у вас наблюдаются проблемы со скриншотами, переходом по ссылками, скачиванием торрентов - проблемы в блокировщике рекламы AdBlock. #хорошегоДня!


Статистика раздачи
Размер:  242 MB   |    Зарегистрирован:  5 лет 8 месяцев   |    .torrent скачан:  28 раз   |   
Раздают:  1  
   
Загрузка...
 
Автор Сообщение

Umakiro

avatar Umakiro


Jack Wilson / Something Personal

Жанр: Hard Bop, Piano Jazz
Страна-производитель диска: USA
Год издания диска: 1996
Издатель (лейбл): Blue Note
Номер по каталогу: 7243 8 52436 2 2
Страна: US Chicago, IL
Аудиокодек: FLAC (*.flac)
Тип рипа: tracks+.cue
Битрейт аудио: lossless
Продолжительность: 00:44:42
Источник (релизер): сеть
Наличие сканов в содержимом раздачи: да
Треклист:
01. Most Unsoulful Woman [06:50]
02. The Sphinx [05:04]
03. Shosh [08:56]
04. Serenata [06:55]
05. Harbor Freeway 5 PM [07:09]
06. CFD [04:55]
07. One And Four [04:51][/i]
 
Exact Audio Copy V1.0 beta 1 from 15. November 2010

EAC extraction logfile from 11. December 2011, 0:33

Jack Wilson / Something Personal

Used drive : TSSTcorpCDDVDW SH-S203N Adapter: 0 ID: 2

Read mode : SecureUtilize accurate stream : YesDefeat audio cache : YesMake use of C2 pointers : No

Read offset correction : 6Overread into Lead-In and Lead-Out : NoFill up missing offset samples with silence : YesDelete leading and trailing silent blocks : NoNull samples used in CRC calculations : YesUsed interface : Installed external ASPI interfaceGap handling : Appended to previous track

Used output format : User Defined EncoderSelected bitrate : 768 kBit/sQuality : HighAdd ID3 tag : NoCommand line compressor : C:\Program Files\Exact Audio Copy-NEW\Flac\flac.exeAdditional command line options : -8 -V -T "ARTIST=%a" -T "TITLE=%t" -T "ALBUM=%g" -T "DATE=%y" -T "TRACKNUMBER=%n" -T "TOTALTRACKS=%x" -T "GENRE=%m" -T "ALBUMARTIST=%v" -T "ALBUM ARTIST=%v" -T "COMMENT=EAC V1.01b1, Secure Mode, Test & Copy, AccurateRip, FL

TOC of the extracted CD

Track | Start | Length | Start sector | End sector --------------------------------------------------------- 1 | 0:00.00 | 6:53.05 | 0 | 30979 2 | 6:53.05 | 5:07.30 | 30980 | 54034 3 | 12:00.35 | 8:59.10 | 54035 | 94469 4 | 20:59.45 | 6:58.17 | 94470 | 125836 5 | 27:57.62 | 7:12.60 | 125837 | 158296 6 | 35:10.47 | 4:58.18 | 158297 | 180664 7 | 40:08.65 | 4:51.25 | 180665 | 202514

Track 1

Filename J:\New Rips\Jack Wilson - Something Personal (1966) [FLAC]\01 - Most Unsoulful Woman.wav

Pre-gap length 0:00:02.00

Peak level 94.4 % Extraction speed 4.4 X Track quality 99.9 % Test CRC B6BCBCF6 Copy CRC B6BCBCF6 Accurately ripped (confidence 2) [CF9C7814] Copy OK

Track 2

Filename J:\New Rips\Jack Wilson - Something Personal (1966) [FLAC]\02 - The Sphinx.wav

Pre-gap length 0:00:03.03

Peak level 93.7 % Extraction speed 5.6 X Track quality 100.0 % Test CRC A827B5A8 Copy CRC A827B5A8 Accurately ripped (confidence 2) [B0BA7A3B] Copy OK

Track 3

Filename J:\New Rips\Jack Wilson - Something Personal (1966) [FLAC]\03 - Shosh.wav

Pre-gap length 0:00:02.58

Peak level 100.0 % Extraction speed 6.6 X Track quality 100.0 % Test CRC 22352DE1 Copy CRC 22352DE1 Accurately ripped (confidence 2) [73829193] Copy OK

Track 4

Filename J:\New Rips\Jack Wilson - Something Personal (1966) [FLAC]\04 - Serenata.wav

Pre-gap length 0:00:02.68

Peak level 100.0 % Extraction speed 7.3 X Track quality 100.0 % Test CRC 6E3A6670 Copy CRC 6E3A6670 Accurately ripped (confidence 2) [7936DD39] Copy OK

Track 5

Filename J:\New Rips\Jack Wilson - Something Personal (1966) [FLAC]\05 - Harbor Freeway 5 PM.wav

Pre-gap length 0:00:03.17

Peak level 100.0 % Extraction speed 7.8 X Track quality 100.0 % Test CRC 2A55A5D9 Copy CRC 2A55A5D9 Accurately ripped (confidence 2) [074D1612] Copy OK

Track 6

Filename J:\New Rips\Jack Wilson - Something Personal (1966) [FLAC]\06 - CFD.wav

Pre-gap length 0:00:03.05

Peak level 100.0 % Extraction speed 8.0 X Track quality 100.0 % Test CRC DC2517CE Copy CRC DC2517CE Accurately ripped (confidence 2) [74444F49] Copy OK

Track 7

Filename J:\New Rips\Jack Wilson - Something Personal (1966) [FLAC]\07 - One And Four.wav

Pre-gap length 0:00:03.08

Peak level 100.0 % Extraction speed 8.3 X Track quality 100.0 % Test CRC AD20AD68 Copy CRC AD20AD68 Track not present in AccurateRip database Copy OK

6 track(s) accurately ripped 1 track(s) not present in the AccurateRip database

Some tracks could not be verified as accurate

No errors occurred

End of status report

==== Log checksum 1B01C108BE3B085896BB57C6552881E7B407681C9D342BC0C4BC4101CDAE7CD5 ====
 
REM GENRE JazzREM DATE 1966REM DISCID 450A8C07REM COMMENT "ExactAudioCopy v1.0b1"PERFORMER "Jack Wilson"TITLE "Something Personal"FILE "01 - Most Unsoulful Woman.flac" WAVE TRACK 01 AUDIO TITLE "Most Unsoulful Woman" PERFORMER "Jack Wilson" INDEX 01 00:00:00 TRACK 02 AUDIO TITLE "The Sphinx" PERFORMER "Jack Wilson" INDEX 00 06:50:02FILE "02 - The Sphinx.flac" WAVE INDEX 01 00:00:00 TRACK 03 AUDIO TITLE "Shosh" PERFORMER "Jack Wilson" INDEX 00 05:04:47FILE "03 - Shosh.flac" WAVE INDEX 01 00:00:00 TRACK 04 AUDIO TITLE "Serenata" PERFORMER "Jack Wilson" INDEX 00 08:56:17FILE "04 - Serenata.flac" WAVE INDEX 01 00:00:00 TRACK 05 AUDIO TITLE "Harbor Freeway 5 PM" PERFORMER "Jack Wilson" INDEX 00 06:55:00FILE "05 - Harbor Freeway 5 PM.flac" WAVE INDEX 01 00:00:00 TRACK 06 AUDIO TITLE "CFD" PERFORMER "Jack Wilson" INDEX 00 07:09:55FILE "06 - CFD.flac" WAVE INDEX 01 00:00:00 TRACK 07 AUDIO TITLE "One And Four" PERFORMER "Jack Wilson" INDEX 00 04:55:10FILE "07 - One And Four.flac" WAVE INDEX 01 00:00:00
 
-----------------------

DON'T MODIFY THIS FILE

-----------------------

PERFORMER: auCDtect Task Manager, ver. 1.5.1RC6 build 1.5.1.7Copyright (c) 2008-2010 y-soft. All rights reservedhttp://y-soft.org

ANALYZER: auCDtect: CD records authenticity detector, version 0.8.2Copyright (c) 2004 Oleg Berngardt. All rights reserved.Copyright (c) 2004 Alexander Djourik. All rights reserved.

FILE: 07 - One And Four.flac Size: 29813372 Hash: 0F0DEC3553ABE2DF4A03CA6A0E313806 Accuracy: -m0 Conclusion: CDDA 99% Signature: 39BCE4B265A45614776A848D627E4896671A0E5AFILE: 06 - CFD.flac Size: 28850457 Hash: 6F1D946815743D24F419BA568B843099 Accuracy: -m0 Conclusion: CDDA 99% Signature: F94C6633D8B46046683F2E48FE046A8FCFE9A708FILE: 05 - Harbor Freeway 5 PM.flac Size: 42879980 Hash: 90456AE8993846214546EF2EFD1F455A Accuracy: -m0 Conclusion: CDDA 100% Signature: 4E58728BE70B44FA3E4DC73BD4A0E5628918D228FILE: 04 - Serenata.flac Size: 36818657 Hash: C8829C6E67850FD5E27669A9E2C7CB88 Accuracy: -m0 Conclusion: CDDA 100% Signature: EF36A99FD365FC6F6D11996B579065F0F5B4AB9AFILE: 03 - Shosh.flac Size: 43253548 Hash: 3E28D073D08096607FA81F1C63A45ABC Accuracy: -m0 Conclusion: CDDA 99% Signature: CFD9EE73724DA3ADB060AA7329170CE096EB0DDDFILE: 02 - The Sphinx.flac Size: 29605761 Hash: E6F6F14A66B47BF401394853D6ABA2FB Accuracy: -m0 Conclusion: CDDA 100% Signature: 370B5D6781E2DAA56C62F91E56B970768D925D15FILE: 01 - Most Unsoulful Woman.flac Size: 38201577 Hash: 82AE37F6E7E667FAE2C2DF26F5A79BC1 Accuracy: -m0 Conclusion: CDDA 100% Signature: 167E79A255B3DB5483946CF569AE75F1A64DE2B4
Piano - Jack Wilson
Vibes - Roy Ayers
Drums - Varney Barlow
Bass, Cello - Ray Brown
Bass - Buster Williams


Трекер:  [ 29-Янв-2012 16:45 ]

  

Скачать .torrent

Размер .torrent файла 20 KB


Размер: 242 MB
Хэш (hash) релиза: 6a1b97dc930ed230574e622b1f4f94ddc0651a97

Еще никто не оставлял запись к записи скачать торрент Jack Wilson - Something Personal - 1996, FLAC . Будь первым!

!Обратная связь