Скачать через торрент музыку Emily Remler - Firefly - 1992, FLAC бесплатно без регистрации torrent

Если у вас наблюдаются проблемы со скриншотами, переходом по ссылками, скачиванием торрентов - проблемы в блокировщике рекламы AdBlock. #хорошегоДня!


Статистика раздачи
Размер:  210 MB   |    Зарегистрирован:  5 лет 8 месяцев   |    .torrent скачан:  18 раз   |   
Раздают:  1  
   
Загрузка...
 
Автор Сообщение

Umakiro

avatar Umakiro


Emily Remler / Firefly

Жанр: Hard Bop
Страна-производитель диска: USA
Год издания диска: 1992
Издатель (лейбл): Concord Jazz
Номер по каталогу: CCD-4162
Страна: New York, NY
Аудиокодек: FLAC (*.flac)
Тип рипа: tracks+.cue
Битрейт аудио: lossless
Продолжительность: 00:39:48
Источник (релизер): joannemullen
Наличие сканов в содержимом раздачи: нет
Треклист:
01. Strollin' [05:30]
02. Look To The Sky [05:23]
03. Perk's Blues [04:07]
04. The Firefly [04:06]
05. Movin' Along [05:31]
06. A Taste Of Honey [02:10]
07. Inception [05:10]
08. In A Sentimental Mood [07:49]
 
X Lossless Decoder version 20111113 (137.1)

XLD extraction logfile from 2011-11-26 01:45:56 +0000

Emily Remler / Firefly

Used drive : MATSHITA DVD-R UJ-898 (revision HC10)

Ripper mode : XLD Secure RipperDisable audio cache : OK for the drive with a cache less than 1375KiBMake use of C2 pointers : NORead offset correction : 102Max retry count : 20Gap status : Analyzed, Appended (except HTOA)

TOC of the extracted CD Track | Start | Length | Start sector | End sector --------------------------------------------------------- 1 | 00:00:00 | 05:34:35 | 0 | 25084 2 | 05:34:35 | 05:27:25 | 25085 | 49634 3 | 11:01:60 | 04:10:62 | 49635 | 68446 4 | 15:12:47 | 04:10:20 | 68447 | 87216 5 | 19:22:67 | 05:35:05 | 87217 | 112346 6 | 24:57:72 | 02:14:43 | 112347 | 122439 7 | 27:12:40 | 05:13:65 | 122440 | 145979 8 | 32:26:30 | 07:49:35 | 145980 | 181189

AccurateRip Summary Track 01 : OK (confidence 2) Track 02 : OK (confidence 2) Track 03 : OK (confidence 2) Track 04 : NG Track 05 : OK (confidence 2) Track 06 : OK (confidence 2) Track 07 : OK (confidence 2) Track 08 : OK (confidence 2) ->7 track(s) accurately ripped, 1 track(s) not, 0 track(s) not found

All Tracks Album gain : -1.26 dB Peak : 0.988586 Statistics Read error : 0 Jitter error (maybe fixed) : 0 Retry sector count : 0 Damaged sector count : 0

Track 01 Filename : /Users/whiskeyrichards/Public/Emily Remler - Firefly (1981) [FLAC]/01 Strollin'.flac Pre-gap length : 00:02:00

Track gain : -0.41 dB Peak : 0.905579 CRC32 hash (test run) : A0493CFB CRC32 hash : A0493CFB CRC32 hash (skip zero) : 785A9522 AccurateRip signature : F5F65B79 ->Accurately ripped! (confidence 2) Statistics Read error : 0 Jitter error (maybe fixed) : 0 Retry sector count : 0 Damaged sector count : 0

Track 02 Filename : /Users/whiskeyrichards/Public/Emily Remler - Firefly (1981) [FLAC]/02 Look To The Sky.flac Pre-gap length : 00:04:25

Track gain : -0.12 dB Peak : 0.715881 CRC32 hash (test run) : 99B5D56E CRC32 hash : 99B5D56E CRC32 hash (skip zero) : 45ED9F46 AccurateRip signature : 44C180E6 ->Accurately ripped! (confidence 2) Statistics Read error : 0 Jitter error (maybe fixed) : 0 Retry sector count : 0 Damaged sector count : 0

Track 03 Filename : /Users/whiskeyrichards/Public/Emily Remler - Firefly (1981) [FLAC]/03 Perk's Blues.flac Pre-gap length : 00:04:23

Track gain : -3.03 dB Peak : 0.988586 CRC32 hash (test run) : 33F2353C CRC32 hash : 33F2353C CRC32 hash (skip zero) : 81B957E0 AccurateRip signature : 5188E15E ->Accurately ripped! (confidence 2) Statistics Read error : 0 Jitter error (maybe fixed) : 0 Retry sector count : 0 Damaged sector count : 0

Track 04 Filename : /Users/whiskeyrichards/Public/Emily Remler - Firefly (1981) [FLAC]/04 The Firefly.flac Pre-gap length : 00:03:55

Track gain : -3.04 dB Peak : 0.983582 CRC32 hash (test run) : 3848CE9D CRC32 hash : 3848CE9D CRC32 hash (skip zero) : A5052177 AccurateRip signature : 18C78533 ->Rip may not be accurate. Statistics Read error : 0 Jitter error (maybe fixed) : 0 Retry sector count : 0 Damaged sector count : 0

Track 05 Filename : /Users/whiskeyrichards/Public/Emily Remler - Firefly (1981) [FLAC]/05 Movin' Along.flac Pre-gap length : 00:03:55

Track gain : -1.60 dB Peak : 0.987274 CRC32 hash (test run) : 786DBA75 CRC32 hash : 786DBA75 CRC32 hash (skip zero) : 61AF296A AccurateRip signature : 40B197FF ->Accurately ripped! (confidence 2) Statistics Read error : 0 Jitter error (maybe fixed) : 0 Retry sector count : 0 Damaged sector count : 0

Track 06 Filename : /Users/whiskeyrichards/Public/Emily Remler - Firefly (1981) [FLAC]/06 A Taste Of Honey.flac Pre-gap length : 00:03:72

Track gain : 5.13 dB Peak : 0.586761 CRC32 hash (test run) : DD2712C3 CRC32 hash : DD2712C3 CRC32 hash (skip zero) : 385602A0 AccurateRip signature : BE1ABAF5 ->Accurately ripped! (confidence 2) Statistics Read error : 0 Jitter error (maybe fixed) : 0 Retry sector count : 0 Damaged sector count : 0

Track 07 Filename : /Users/whiskeyrichards/Public/Emily Remler - Firefly (1981) [FLAC]/07 Inception.flac Pre-gap length : 00:03:70

Track gain : -1.26 dB Peak : 0.923737 CRC32 hash (test run) : 0F49C26B CRC32 hash : 0F49C26B CRC32 hash (skip zero) : F7036A5C AccurateRip signature : 64A68236 ->Accurately ripped! (confidence 2) Statistics Read error : 0 Jitter error (maybe fixed) : 0 Retry sector count : 0 Damaged sector count : 0

Track 08 Filename : /Users/whiskeyrichards/Public/Emily Remler - Firefly (1981) [FLAC]/08 In A Sentimental Mood.flac Pre-gap length : 00:03:48

Track gain : 0.66 dB Peak : 0.864746 CRC32 hash (test run) : FC364B6D CRC32 hash : FC364B6D CRC32 hash (skip zero) : 3356CE84 AccurateRip signature : E00FC514 ->Accurately ripped! (confidence 2) Statistics Read error : 0 Jitter error (maybe fixed) : 0 Retry sector count : 0 Damaged sector count : 0

No errors occurred

End of status report
 
TITLE "Firefly"PERFORMER "Emily Remler"REM GENRE "Jazz"REM DATE "1981"REM DISCNUMBER 1REM TOTALDISCS 1REM DISCID 72096F08REM REPLAYGAIN_ALBUM_GAIN -1.26 dBREM REPLAYGAIN_ALBUM_PEAK 0.988586FILE "01 Strollin'.flac" WAVE TRACK 01 AUDIO TITLE "Strollin'" SONGWRITER "Horace Silver" REM REPLAYGAIN_TRACK_GAIN -0.41 dB REM REPLAYGAIN_TRACK_PEAK 0.905579 INDEX 01 00:00:00 TRACK 02 AUDIO TITLE "Look To The Sky" SONGWRITER "Antonio Carlos Jobim" REM REPLAYGAIN_TRACK_GAIN -0.12 dB REM REPLAYGAIN_TRACK_PEAK 0.715881 INDEX 00 05:30:10FILE "02 Look To The Sky.flac" WAVE INDEX 01 00:00:00 TRACK 03 AUDIO TITLE "Perk's Blues" SONGWRITER "Emily Remler" REM REPLAYGAIN_TRACK_GAIN -3.03 dB REM REPLAYGAIN_TRACK_PEAK 0.988586 INDEX 00 05:23:02FILE "03 Perk's Blues.flac" WAVE INDEX 01 00:00:00 TRACK 04 AUDIO TITLE "The Firefly" SONGWRITER "Emily Remler" REM REPLAYGAIN_TRACK_GAIN -3.04 dB REM REPLAYGAIN_TRACK_PEAK 0.983582 INDEX 00 04:07:07FILE "04 The Firefly.flac" WAVE INDEX 01 00:00:00 TRACK 05 AUDIO TITLE "Movin' Along" SONGWRITER "Wes Montgomery" REM REPLAYGAIN_TRACK_GAIN -1.60 dB REM REPLAYGAIN_TRACK_PEAK 0.987274 INDEX 00 04:06:40FILE "05 Movin' Along.flac" WAVE INDEX 01 00:00:00 TRACK 06 AUDIO TITLE "A Taste Of Honey" SONGWRITER "Bobby Scott" REM REPLAYGAIN_TRACK_GAIN 5.13 dB REM REPLAYGAIN_TRACK_PEAK 0.586761 INDEX 00 05:31:08FILE "06 A Taste Of Honey.flac" WAVE INDEX 01 00:00:00 TRACK 07 AUDIO TITLE "Inception" SONGWRITER "McCoy Tyner" REM REPLAYGAIN_TRACK_GAIN -1.26 dB REM REPLAYGAIN_TRACK_PEAK 0.923737 INDEX 00 02:10:48FILE "07 Inception.flac" WAVE INDEX 01 00:00:00 TRACK 08 AUDIO TITLE "In A Sentimental Mood" SONGWRITER "Duke Ellington" REM REPLAYGAIN_TRACK_GAIN 0.66 dB REM REPLAYGAIN_TRACK_PEAK 0.864746 INDEX 00 05:10:17FILE "08 In A Sentimental Mood.flac" WAVE INDEX 01 00:00:00
 
-----------------------

DON'T MODIFY THIS FILE

-----------------------

PERFORMER: auCDtect Task Manager, ver. 1.5.1RC6 build 1.5.1.7Copyright (c) 2008-2010 y-soft. All rights reservedhttp://y-soft.org

ANALYZER: auCDtect: CD records authenticity detector, version 0.8.2Copyright (c) 2004 Oleg Berngardt. All rights reserved.Copyright (c) 2004 Alexander Djourik. All rights reserved.

FILE: 08 In A Sentimental Mood.flac Size: 38555109 Hash: C054208634D8F48220924BE392DD1E29 Accuracy: -m0 Conclusion: CDDA 100% Signature: 998A2C34D4BBDCA115A2FF192C5764FAD5ED54ECFILE: 07 Inception.flac Size: 31366157 Hash: 62327EF0A8476A9127064AD5FD94BED8 Accuracy: -m0 Conclusion: CDDA 100% Signature: A59B53BA93B2D2CF466AD370528CF52A26B04DC5FILE: 06 A Taste Of Honey.flac Size: 6455264 Hash: 5787FC603FDB319E686A87B65D4BC908 Accuracy: -m0 Conclusion: CDDA 100% Signature: E1341CE534D2E763882BA635A563FD87C3913A88FILE: 05 Movin' Along.flac Size: 34416545 Hash: C7689E29EBD5CAE7E3703394045A893B Accuracy: -m0 Conclusion: CDDA 100% Signature: A18A48B3A464F76D712A22FEBFC00A3EA017F5A6FILE: 04 The Firefly.flac Size: 25284317 Hash: A59B89114B082785EA613039CDB69420 Accuracy: -m0 Conclusion: CDDA 100% Signature: 20B60EB72392547D7BBB05DD6F8E870DC2D2CB19FILE: 03 Perk's Blues.flac Size: 26460832 Hash: DC5C764CCE205F29F30552F94B85F946 Accuracy: -m0 Conclusion: CDDA 100% Signature: EB89708D14EBE9F15E8102EC65BBC234A8A89B01FILE: 02 Look To The Sky.flac Size: 25075452 Hash: D5D1052BB9186BEDD323EB245E4CD7F0 Accuracy: -m0 Conclusion: CDDA 100% Signature: 7042204391096CB3F9B262BF7BC7A62960983D9DFILE: 01 Strollin'.flac Size: 32224141 Hash: C05DC12942D7F8D327599256C1AD4743 Accuracy: -m0 Conclusion: CDDA 100% Signature: C347ED51DD8684538751897D5520C7ED2E4BA0E2
Emily Remler (guitar)
Hank Jones (piano)
Bob Maize (bass)
Jake Hanna (drums)


Трекер:  [ 29-Янв-2012 16:45 ]

  

Скачать .torrent

Размер .torrent файла 17 KB


Размер: 210 MB
Хэш (hash) релиза: 7e2280551850945f3a2f381eb4f5398abecaf385

Еще никто не оставлял запись к записи скачать торрент Emily Remler - Firefly - 1992, FLAC . Будь первым!

!Обратная связь