Скачать через торрент музыку Emily Remler - This Is Me - 1990, FLAC бесплатно без регистрации torrent

Если у вас наблюдаются проблемы со скриншотами, переходом по ссылками, скачиванием торрентов - проблемы в блокировщике рекламы AdBlock. #хорошегоДня!


Статистика раздачи
Размер:  330 MB   |    Зарегистрирован:  5 лет 8 месяцев   |    .torrent скачан:  22 раза   |   
Раздают:  1  
   
Загрузка...
 
Автор Сообщение

Umakiro

avatar Umakiro


Emily Remler / This Is Me

Жанр: Hard Bop
Страна-производитель диска: USA
Год издания диска: 1990
Издатель (лейбл): Justice Records
Номер по каталогу: JR# 0501-2
Страна: USA New York, NY
Аудиокодек: FLAC (*.flac)
Тип рипа: tracks+.cue
Битрейт аудио: lossless
Продолжительность: 00:54:55
Источник (релизер): joannemullen
Наличие сканов в содержимом раздачи: нет
Треклист:
01. Deep In A Trance [05:24]
02. Majestic Dance [04:49]
03. Majestic Dance [04:49]
04. Love Colors [04:50]
05. Dark Passage [04:46]
06. You Know What I'm Saying [04:50]
07. Song For Maggie [05:37]
08. Around The Bend [05:11]
09. Carenia [06:18]
10. Simplicidaje [04:53]
11. Second Childhood [03:23]
 
X Lossless Decoder version 20111113 (137.1)

XLD extraction logfile from 2011-11-26 00:35:24 +0000

Emily Remler / This Is Me

Used drive : MATSHITA DVD-R UJ-898 (revision HC10)

Ripper mode : XLD Secure RipperDisable audio cache : OK for the drive with a cache less than 1375KiBMake use of C2 pointers : NORead offset correction : 102Max retry count : 20Gap status : Analyzed, Appended (except HTOA)

TOC of the extracted CD Track | Start | Length | Start sector | End sector --------------------------------------------------------- 1 | 00:00:32 | 05:26:60 | 32 | 24541 2 | 05:27:17 | 04:51:28 | 24542 | 46394 3 | 10:18:45 | 06:17:15 | 46395 | 74684 4 | 16:35:60 | 04:52:00 | 74685 | 96584 5 | 21:27:60 | 04:48:52 | 96585 | 118236 6 | 26:16:37 | 04:51:70 | 118237 | 140131 7 | 31:08:32 | 05:38:50 | 140132 | 165531 8 | 36:47:07 | 05:13:00 | 165532 | 189006 9 | 42:00:07 | 06:19:40 | 189007 | 217471 10 | 48:19:47 | 04:55:00 | 217472 | 239596 11 | 53:14:47 | 03:23:60 | 239597 | 254881

AccurateRip Summary Track 01 : OK (confidence 10) Track 02 : OK (confidence 10) Track 03 : OK (confidence 10) Track 04 : OK (confidence 10) Track 05 : OK (confidence 10) Track 06 : OK (confidence 10) Track 07 : OK (confidence 9) Track 08 : OK (confidence 10) Track 09 : OK (confidence 10) Track 10 : OK (confidence 10) Track 11 : OK (confidence 10) ->All tracks accurately ripped.

All Tracks Album gain : -0.28 dB Peak : 0.999969 Statistics Read error : 0 Jitter error (maybe fixed) : 0 Retry sector count : 0 Damaged sector count : 0

Track 01 Filename : /Users/whiskeyrichards/Public/Emily Remler - This Is Me (1990) [FLAC]/01 Deep In A Trance.flac Pre-gap length : 00:02:32

Track gain : -1.57 dB Peak : 0.951050 CRC32 hash (test run) : 8BEA194C CRC32 hash : 8BEA194C CRC32 hash (skip zero) : FDF68355 AccurateRip signature : 137C37AC ->Accurately ripped! (confidence 10) Statistics Read error : 0 Jitter error (maybe fixed) : 0 Retry sector count : 0 Damaged sector count : 0

Track 02 Filename : /Users/whiskeyrichards/Public/Emily Remler - This Is Me (1990) [FLAC]/02 Majestic Dance.flac Pre-gap length : 00:02:12

Track gain : -0.29 dB Peak : 0.974243 CRC32 hash (test run) : 0DBC896D CRC32 hash : 0DBC896D CRC32 hash (skip zero) : 84FD51D9 AccurateRip signature : D9FACA02 ->Accurately ripped! (confidence 10) Statistics Read error : 0 Jitter error (maybe fixed) : 0 Retry sector count : 0 Damaged sector count : 0

Track 03 Filename : /Users/whiskeyrichards/Public/Emily Remler - This Is Me (1990) [FLAC]/03 "E" Samba.flac Pre-gap length : 00:01:60

Track gain : -1.46 dB Peak : 0.999969 CRC32 hash (test run) : 553CCED4 CRC32 hash : 553CCED4 CRC32 hash (skip zero) : 906B87BE AccurateRip signature : 30B157E5 ->Accurately ripped! (confidence 10) Statistics Read error : 0 Jitter error (maybe fixed) : 0 Retry sector count : 0 Damaged sector count : 0

Track 04 Filename : /Users/whiskeyrichards/Public/Emily Remler - This Is Me (1990) [FLAC]/04 Love Colors.flac Pre-gap length : 00:02:03

Track gain : 1.62 dB Peak : 0.818817 CRC32 hash (test run) : 29A810AF CRC32 hash : 29A810AF CRC32 hash (skip zero) : C0761AEC AccurateRip signature : B97112E1 ->Accurately ripped! (confidence 10) Statistics Read error : 0 Jitter error (maybe fixed) : 0 Retry sector count : 0 Damaged sector count : 0

Track 05 Filename : /Users/whiskeyrichards/Public/Emily Remler - This Is Me (1990) [FLAC]/05 Dark Passage.flac Pre-gap length : 00:01:73

Track gain : 1.47 dB Peak : 0.999969 CRC32 hash (test run) : F46FF89B CRC32 hash : F46FF89B CRC32 hash (skip zero) : 8FBEA4C0 AccurateRip signature : 9E56F4B5 ->Accurately ripped! (confidence 10) Statistics Read error : 0 Jitter error (maybe fixed) : 0 Retry sector count : 0 Damaged sector count : 0

Track 06 Filename : /Users/whiskeyrichards/Public/Emily Remler - This Is Me (1990) [FLAC]/06 You Know What I'm Saying.flac Pre-gap length : 00:02:07

Track gain : 2.48 dB Peak : 0.825348 CRC32 hash (test run) : F9724998 CRC32 hash : F9724998 CRC32 hash (skip zero) : 7A685D0C AccurateRip signature : E8C7CD06 ->Accurately ripped! (confidence 10) Statistics Read error : 0 Jitter error (maybe fixed) : 0 Retry sector count : 0 Damaged sector count : 0

Track 07 Filename : /Users/whiskeyrichards/Public/Emily Remler - This Is Me (1990) [FLAC]/07 Song For Maggie.flac Pre-gap length : 00:01:17

Track gain : 0.18 dB Peak : 0.868225 CRC32 hash (test run) : E0E78895 CRC32 hash : E0E78895 CRC32 hash (skip zero) : F5F2BAF1 AccurateRip signature : 34BC4924 ->Accurately ripped! (confidence 9) Statistics Read error : 0 Jitter error (maybe fixed) : 0 Retry sector count : 0 Damaged sector count : 0

Track 08 Filename : /Users/whiskeyrichards/Public/Emily Remler - This Is Me (1990) [FLAC]/08 Around The Bend.flac Pre-gap length : 00:01:10

Track gain : -0.43 dB Peak : 0.999969 CRC32 hash (test run) : 9975F40F CRC32 hash : 9975F40F CRC32 hash (skip zero) : 1C9AF2AF AccurateRip signature : E7CC0696 ->Accurately ripped! (confidence 10) Statistics Read error : 0 Jitter error (maybe fixed) : 0 Retry sector count : 0 Damaged sector count : 0

Track 09 Filename : /Users/whiskeyrichards/Public/Emily Remler - This Is Me (1990) [FLAC]/09 Carenia.flac Pre-gap length : 00:01:62

Track gain : -0.30 dB Peak : 0.934753 CRC32 hash (test run) : D2DAF65F CRC32 hash : D2DAF65F CRC32 hash (skip zero) : 90FF4041 AccurateRip signature : 44CE0F52 ->Accurately ripped! (confidence 10) Statistics Read error : 0 Jitter error (maybe fixed) : 0 Retry sector count : 0 Damaged sector count : 0

Track 10 Filename : /Users/whiskeyrichards/Public/Emily Remler - This Is Me (1990) [FLAC]/10 Simplicidaje.flac Pre-gap length : 00:01:37

Track gain : -0.85 dB Peak : 0.999969 CRC32 hash (test run) : 386F4D3D CRC32 hash : 386F4D3D CRC32 hash (skip zero) : A2D35AC0 AccurateRip signature : 1073BE1A ->Accurately ripped! (confidence 10) Statistics Read error : 0 Jitter error (maybe fixed) : 0 Retry sector count : 0 Damaged sector count : 0

Track 11 Filename : /Users/whiskeyrichards/Public/Emily Remler - This Is Me (1990) [FLAC]/11 Second Childhood.flac Pre-gap length : 00:01:30

Track gain : 2.08 dB Peak : 0.919220 CRC32 hash (test run) : B79A3C57 CRC32 hash : B79A3C57 CRC32 hash (skip zero) : D0FCE7DF AccurateRip signature : 7BFE974C ->Accurately ripped! (confidence 10) Statistics Read error : 0 Jitter error (maybe fixed) : 0 Retry sector count : 0 Damaged sector count : 0

No errors occurred

End of status report
 
TITLE "This Is Me"PERFORMER "Emily Remler"REM GENRE "Jazz"REM DATE "1990"REM DISCNUMBER 1REM TOTALDISCS 1REM DISCID A10D460BREM REPLAYGAIN_ALBUM_GAIN -0.28 dBREM REPLAYGAIN_ALBUM_PEAK 0.999969FILE "01 Deep In A Trance.flac" WAVE TRACK 01 AUDIO TITLE "Deep In A Trance" SONGWRITER "Emily Remler-David Benoit" REM REPLAYGAIN_TRACK_GAIN -1.57 dB REM REPLAYGAIN_TRACK_PEAK 0.951050 PREGAP 00:00:32 INDEX 01 00:00:00 TRACK 02 AUDIO TITLE "Majestic Dance" SONGWRITER "Emily Remler" REM REPLAYGAIN_TRACK_GAIN -0.29 dB REM REPLAYGAIN_TRACK_PEAK 0.974243 INDEX 00 05:24:48FILE "02 Majestic Dance.flac" WAVE INDEX 01 00:00:00 TRACK 03 AUDIO TITLE ""E" Samba" SONGWRITER "Emily Remler-Bill O'Connell" REM REPLAYGAIN_TRACK_GAIN -1.46 dB REM REPLAYGAIN_TRACK_PEAK 0.999969 INDEX 00 04:49:43FILE "03 "E" Samba.flac" WAVE INDEX 01 00:00:00 TRACK 04 AUDIO TITLE "Love Colors" SONGWRITER "David Benoit" REM REPLAYGAIN_TRACK_GAIN 1.62 dB REM REPLAYGAIN_TRACK_PEAK 0.818817 INDEX 00 06:15:12FILE "04 Love Colors.flac" WAVE INDEX 01 00:00:00 TRACK 05 AUDIO TITLE "Dark Passage" SONGWRITER "Emily Remler" REM REPLAYGAIN_TRACK_GAIN 1.47 dB REM REPLAYGAIN_TRACK_PEAK 0.999969 INDEX 00 04:50:02FILE "05 Dark Passage.flac" WAVE INDEX 01 00:00:00 TRACK 06 AUDIO TITLE "You Know What I'm Saying" SONGWRITER "Emily Remler" REM REPLAYGAIN_TRACK_GAIN 2.48 dB REM REPLAYGAIN_TRACK_PEAK 0.825348 INDEX 00 04:46:45FILE "06 You Know What I'm Saying.flac" WAVE INDEX 01 00:00:00 TRACK 07 AUDIO TITLE "Song For Maggie" SONGWRITER "Emily Remler" REM REPLAYGAIN_TRACK_GAIN 0.18 dB REM REPLAYGAIN_TRACK_PEAK 0.868225 INDEX 00 04:50:53FILE "07 Song For Maggie.flac" WAVE INDEX 01 00:00:00 TRACK 08 AUDIO TITLE "Around The Bend" SONGWRITER "Emily Remler" REM REPLAYGAIN_TRACK_GAIN -0.43 dB REM REPLAYGAIN_TRACK_PEAK 0.999969 INDEX 00 05:37:40FILE "08 Around The Bend.flac" WAVE INDEX 01 00:00:00 TRACK 09 AUDIO TITLE "Carenia" SONGWRITER "Emily Remler" REM REPLAYGAIN_TRACK_GAIN -0.30 dB REM REPLAYGAIN_TRACK_PEAK 0.934753 INDEX 00 05:11:13FILE "09 Carenia.flac" WAVE INDEX 01 00:00:00 TRACK 10 AUDIO TITLE "Simplicidaje" SONGWRITER "Emily Remler" REM REPLAYGAIN_TRACK_GAIN -0.85 dB REM REPLAYGAIN_TRACK_PEAK 0.999969 INDEX 00 06:18:03FILE "10 Simplicidaje.flac" WAVE INDEX 01 00:00:00 TRACK 11 AUDIO TITLE "Second Childhood" SONGWRITER "Emily Remler" REM REPLAYGAIN_TRACK_GAIN 2.08 dB REM REPLAYGAIN_TRACK_PEAK 0.919220 INDEX 00 04:53:45FILE "11 Second Childhood.flac" WAVE INDEX 01 00:00:00
 
-----------------------

DON'T MODIFY THIS FILE

-----------------------

PERFORMER: auCDtect Task Manager, ver. 1.5.1RC6 build 1.5.1.7Copyright (c) 2008-2010 y-soft. All rights reservedhttp://y-soft.org

ANALYZER: auCDtect: CD records authenticity detector, version 0.8.2Copyright (c) 2004 Oleg Berngardt. All rights reserved.Copyright (c) 2004 Alexander Djourik. All rights reserved.

FILE: 11 Second Childhood.flac Size: 16252990 Hash: 162562D997C1128D8DDB0F437A0449AD Accuracy: -m0 Conclusion: CDDA 42% Signature: 49636CA53FD0D66366039D21AA93FEBFF202B8DAFILE: 10 Simplicidaje.flac Size: 33237446 Hash: 852341A2665DFD22A06CEE5B7102633F Accuracy: -m0 Conclusion: CDDA 100% Signature: E3FE8FB18CB175AB1E1BC5653C58211306FA609EFILE: 09 Carenia.flac Size: 43132386 Hash: DE2390D642AC51EC7085E5B21DD6E848 Accuracy: -m0 Conclusion: CDDA 100% Signature: 84A3368C9BEA34246B5B4E6377C634DCD50CDA00FILE: 08 Around The Bend.flac Size: 34582188 Hash: DDB52FC7611C1C9F95726C3A396B76A1 Accuracy: -m0 Conclusion: CDDA 99% Signature: F2A02EEF1A916DA6A8C628E28F436DAFFD5AC69CFILE: 07 Song For Maggie.flac Size: 33595123 Hash: E83B77C438FAC7D320AEFB8167009BEB Accuracy: -m0 Conclusion: CDDA 99% Signature: A8FF1F01355F3286CC9D2A5AEC6B4489A7065AFBFILE: 06 You Know What I'm Saying.flac Size: 28361666 Hash: 6659331000614A844B68E826C874A238 Accuracy: -m0 Conclusion: CDDA 100% Signature: BB8A74D060B0FC0D494CB25CC7900CFCEEBB0E68FILE: 05 Dark Passage.flac Size: 27142978 Hash: E8D72AEB25A3FEBB62946F62EC2B1628 Accuracy: -m0 Conclusion: CDDA 100% Signature: 892F05A33D155C936E0D6C0F63BAA10F07FAFD72FILE: 04 Love Colors.flac Size: 28036342 Hash: 74D596BF6D8AE9F2035C3AD129210790 Accuracy: -m0 Conclusion: CDDA 100% Signature: 6578C0F035EEFE63B37BF060210973C56E9DA197FILE: 03 _E_ Samba.flac Size: 37662176 Hash: 6628102F5CD245DCDA873243598F5BD8 Accuracy: -m0 Conclusion: CDDA 100% Signature: 72574DCFAF7955C74EA2CA9372E5CD5562BB8DB8FILE: 02 Majestic Dance.flac Size: 29596232 Hash: 0C4B2C1E390A80CF6AEAC3932B27ABB7 Accuracy: -m0 Conclusion: CDDA 100% Signature: 2A2F1431123B45C7F1AD07CAEE9D24991A3A3BDFFILE: 01 Deep In A Trance.flac Size: 34326449 Hash: E00BD9A6040DC55A55D272B3052ADA0B Accuracy: -m0 Conclusion: CDDA 99% Signature: C5F47D3DE44F5855C461DAF4AA306AEED375F678
Emily Remler (guitar, guitar synthesizer); Maucha Adnet (vocals); Jay Ashby (trombone, percussion); Aydin Esen (piano, keyboards); Bill O'Connell (piano); David Benoit, Russ Freeman (keyboards); Romero Lubambo (acoustic guitar); Lincoln Goines, Jimmy Johnson (bass); Jeff Porcaro, Ricky Sebastian, Daduka Fonseca (drums); Luis Conte, Jeffrey Weber, Cafe (percussion)


Трекер:  [ 29-Янв-2012 16:44 ]

  

Скачать .torrent

Размер .torrent файла 14 KB


Размер: 330 MB
Хэш (hash) релиза: 21205562b67967e114bb578188fa30af0053e714

Еще никто не оставлял запись к записи скачать торрент Emily Remler - This Is Me - 1990, FLAC . Будь первым!

!Обратная связь