Скачать через торрент музыку Emily Remler - East to Wes - 1988, FLAC бесплатно без регистрации torrent

Если у вас наблюдаются проблемы со скриншотами, переходом по ссылками, скачиванием торрентов - проблемы в блокировщике рекламы AdBlock. #хорошегоДня!


Статистика раздачи
Размер:  275 MB   |    Зарегистрирован:  5 лет 8 месяцев   |    .torrent скачан:  25 раз   |   
Раздают:  1  
   
Загрузка...
 
Автор Сообщение

Umakiro

avatar Umakiro


Emily Remler / East to Wes

Жанр: Hard Bop
Страна-производитель диска: USA
Год издания диска: 1988
Издатель (лейбл): Concord Jaz
Номер по каталогу: CCD-356
Страна: USA New York, NY
Аудиокодек: FLAC (*.flac)
Тип рипа: tracks+.cue
Битрейт аудио: lossless
Продолжительность: 00:51:15
Источник (релизер): joannemullen
Наличие сканов в содержимом раздачи: нет
Треклист:
01. Daahound [05:15]
02. Snowfall [06:35]
03. Hot House [05:41]
04. Sweet Georgie Fame [05:35]
05. Ballad For A Music Box [07:21]
06. Blues For Herb [06:22]
07. Softly As In A Morning Sunrise [08:10]
08. East To Wes [06:12]
 
X Lossless Decoder version 20111113 (137.1)

XLD extraction logfile from 2011-11-26 00:05:25 +0000

Emily Remler / East To Wes

Used drive : MATSHITA DVD-R UJ-898 (revision HC10)

Ripper mode : XLD Secure RipperDisable audio cache : OK for the drive with a cache less than 1375KiBMake use of C2 pointers : NORead offset correction : 102Max retry count : 20Gap status : Analyzed, Appended (except HTOA)

TOC of the extracted CD Track | Start | Length | Start sector | End sector --------------------------------------------------------- 1 | 00:00:00 | 05:19:42 | 0 | 23966 2 | 05:19:42 | 06:39:00 | 23967 | 53891 3 | 11:58:42 | 05:45:00 | 53892 | 79766 4 | 17:43:42 | 05:38:30 | 79767 | 105146 5 | 23:21:72 | 07:25:23 | 105147 | 138544 6 | 30:47:20 | 06:26:37 | 138545 | 167531 7 | 37:13:57 | 08:14:05 | 167532 | 204586 8 | 45:27:62 | 06:12:30 | 204587 | 232516

List of alternate offset correction values # | Absolute | Relative | Confidence ------------------------------------------ 1 | 84 | -18 | 3

AccurateRip Summary Track 01 : OK (confidence 2) Track 02 : OK (confidence 2) Track 03 : OK (confidence 2) Track 04 : OK (confidence 2) Track 05 : OK (confidence 2) Track 06 : OK (confidence 2) Track 07 : OK (confidence 2) Track 08 : OK (confidence 2) ->All tracks accurately ripped.

All Tracks Album gain : 2.67 dB Peak : 0.697235 Statistics Read error : 0 Jitter error (maybe fixed) : 0 Retry sector count : 0 Damaged sector count : 0

Track 01 Filename : /Users/whiskeyrichards/Public/Emily Remler - East To Wes (1988) [FLAC]/01 Daahound.flac Pre-gap length : 00:02:00

Track gain : 1.22 dB Peak : 0.653961 CRC32 hash (test run) : DD440450 CRC32 hash : DD440450 CRC32 hash (skip zero) : 3102E2C4 AccurateRip signature : E3A2848E ->Accurately ripped! (confidence 2) Statistics Read error : 0 Jitter error (maybe fixed) : 0 Retry sector count : 0 Damaged sector count : 0

Track 02 Filename : /Users/whiskeyrichards/Public/Emily Remler - East To Wes (1988) [FLAC]/02 Snowfall.flac Pre-gap length : 00:03:55

Track gain : 4.32 dB Peak : 0.524841 CRC32 hash (test run) : 47E275EE CRC32 hash : 47E275EE CRC32 hash (skip zero) : 90DFB04B AccurateRip signature : F5257557 ->Accurately ripped! (confidence 2) Statistics Read error : 0 Jitter error (maybe fixed) : 0 Retry sector count : 0 Damaged sector count : 0

Track 03 Filename : /Users/whiskeyrichards/Public/Emily Remler - East To Wes (1988) [FLAC]/03 Hot House.flac Pre-gap length : 00:03:57

Track gain : 1.02 dB Peak : 0.697235 CRC32 hash (test run) : 517A9BF2 CRC32 hash : 517A9BF2 CRC32 hash (skip zero) : B56C03CF AccurateRip signature : A89A1450 ->Accurately ripped! (confidence 2) Statistics Read error : 0 Jitter error (maybe fixed) : 0 Retry sector count : 0 Damaged sector count : 0

Track 04 Filename : /Users/whiskeyrichards/Public/Emily Remler - East To Wes (1988) [FLAC]/04 Sweet Georgie Fame.flac Pre-gap length : 00:03:45

Track gain : 3.53 dB Peak : 0.458252 CRC32 hash (test run) : 1D753D1D CRC32 hash : 1D753D1D CRC32 hash (skip zero) : 80C90E24 AccurateRip signature : F422F287 ->Accurately ripped! (confidence 2) Statistics Read error : 0 Jitter error (maybe fixed) : 0 Retry sector count : 0 Damaged sector count : 0

Track 05 Filename : /Users/whiskeyrichards/Public/Emily Remler - East To Wes (1988) [FLAC]/05 Ballad For A Music Box.flac Pre-gap length : 00:03:02

Track gain : 6.18 dB Peak : 0.416077 CRC32 hash (test run) : 3A860BEE CRC32 hash : 3A860BEE CRC32 hash (skip zero) : 3A8B83F2 AccurateRip signature : B83A13ED ->Accurately ripped! (confidence 2) Statistics Read error : 0 Jitter error (maybe fixed) : 0 Retry sector count : 0 Damaged sector count : 0

Track 06 Filename : /Users/whiskeyrichards/Public/Emily Remler - East To Wes (1988) [FLAC]/06 Blues For Herb.flac Pre-gap length : 00:03:28

Track gain : 2.83 dB Peak : 0.547180 CRC32 hash (test run) : E5EB009E CRC32 hash : E5EB009E CRC32 hash (skip zero) : 97F26BE2 AccurateRip signature : 93BAAA83 ->Accurately ripped! (confidence 2) Statistics Read error : 0 Jitter error (maybe fixed) : 0 Retry sector count : 0 Damaged sector count : 0

Track 07 Filename : /Users/whiskeyrichards/Public/Emily Remler - East To Wes (1988) [FLAC]/07 Softly As In A Morning Sunrise.flac Pre-gap length : 00:03:55

Track gain : 2.35 dB Peak : 0.432953 CRC32 hash (test run) : BEB0B4CA CRC32 hash : BEB0B4CA CRC32 hash (skip zero) : 8A0442EC AccurateRip signature : C544B829 ->Accurately ripped! (confidence 2) Statistics Read error : 0 Jitter error (maybe fixed) : 0 Retry sector count : 0 Damaged sector count : 0

Track 08 Filename : /Users/whiskeyrichards/Public/Emily Remler - East To Wes (1988) [FLAC]/08 East To Wes.flac Pre-gap length : 00:03:37

Track gain : 2.91 dB Peak : 0.592133 CRC32 hash (test run) : 9A7A5240 CRC32 hash : 9A7A5240 CRC32 hash (skip zero) : CE60C7F9 AccurateRip signature : 211E57C1 ->Accurately ripped! (confidence 2) Statistics Read error : 0 Jitter error (maybe fixed) : 0 Retry sector count : 0 Damaged sector count : 0

No errors occurred

End of status report
 
TITLE "East To Wes"PERFORMER "Emily Remler"REM GENRE "Jazz"REM DATE "1988"REM DISCNUMBER 1REM TOTALDISCS 1REM DISCID 5B0C1C08REM REPLAYGAIN_ALBUM_GAIN 2.67 dBREM REPLAYGAIN_ALBUM_PEAK 0.697235FILE "01 Daahound.flac" WAVE TRACK 01 AUDIO TITLE "Daahound" SONGWRITER "Clifford Brown" REM REPLAYGAIN_TRACK_GAIN 1.22 dB REM REPLAYGAIN_TRACK_PEAK 0.653961 INDEX 01 00:00:00 TRACK 02 AUDIO TITLE "Snowfall" SONGWRITER "Claude Thornhill" REM REPLAYGAIN_TRACK_GAIN 4.32 dB REM REPLAYGAIN_TRACK_PEAK 0.524841 INDEX 00 05:15:62FILE "02 Snowfall.flac" WAVE INDEX 01 00:00:00 TRACK 03 AUDIO TITLE "Hot House" SONGWRITER "Tadd Dameron" REM REPLAYGAIN_TRACK_GAIN 1.02 dB REM REPLAYGAIN_TRACK_PEAK 0.697235 INDEX 00 06:35:18FILE "03 Hot House.flac" WAVE INDEX 01 00:00:00 TRACK 04 AUDIO TITLE "Sweet Georgie Fame" SONGWRITER "Blossom Dearie/Sandra Harris" REM REPLAYGAIN_TRACK_GAIN 3.53 dB REM REPLAYGAIN_TRACK_PEAK 0.458252 INDEX 00 05:41:30FILE "04 Sweet Georgie Fame.flac" WAVE INDEX 01 00:00:00 TRACK 05 AUDIO TITLE "Ballad For A Music Box" SONGWRITER "Emily Remler" REM REPLAYGAIN_TRACK_GAIN 6.18 dB REM REPLAYGAIN_TRACK_PEAK 0.416077 INDEX 00 05:35:28FILE "05 Ballad For A Music Box.flac" WAVE INDEX 01 00:00:00 TRACK 06 AUDIO TITLE "Blues For Herb" SONGWRITER "Emily Remler" REM REPLAYGAIN_TRACK_GAIN 2.83 dB REM REPLAYGAIN_TRACK_PEAK 0.547180 INDEX 00 07:21:70FILE "06 Blues For Herb.flac" WAVE INDEX 01 00:00:00 TRACK 07 AUDIO TITLE "Softly As In A Morning Sunrise" SONGWRITER "Sigmund Romberg/Oscar Hammerstein II" REM REPLAYGAIN_TRACK_GAIN 2.35 dB REM REPLAYGAIN_TRACK_PEAK 0.432953 INDEX 00 06:22:57FILE "07 Softly As In A Morning Sunrise.flac" WAVE INDEX 01 00:00:00 TRACK 08 AUDIO TITLE "East To Wes" SONGWRITER "Emily Remler" REM REPLAYGAIN_TRACK_GAIN 2.91 dB REM REPLAYGAIN_TRACK_PEAK 0.592133 INDEX 00 08:10:43FILE "08 East To Wes.flac" WAVE INDEX 01 00:00:00
 
-----------------------

DON'T MODIFY THIS FILE

-----------------------

PERFORMER: auCDtect Task Manager, ver. 1.5.1RC6 build 1.5.1.7Copyright (c) 2008-2010 y-soft. All rights reservedhttp://y-soft.org

ANALYZER: auCDtect: CD records authenticity detector, version 0.8.2Copyright (c) 2004 Oleg Berngardt. All rights reserved.Copyright (c) 2004 Alexander Djourik. All rights reserved.

FILE: 08 East To Wes.flac Size: 38425308 Hash: 930EC92244ABA1684E8F8598EF9C445C Accuracy: -m0 Conclusion: CDDA 99% Signature: 49631F68D398526A1B30B7EBF4B8D35E1ACE414BFILE: 07 Softly As In A Morning Sunrise.flac Size: 42202943 Hash: 4050636F46C4B317705E210435BFA847 Accuracy: -m0 Conclusion: CDDA 100% Signature: C2DD2AB6D8E9678B4A082F72E9D1E0C4699DE83CFILE: 06 Blues For Herb.flac Size: 38851255 Hash: 0FC40A999BC6842EAD5358E840B36D40 Accuracy: -m0 Conclusion: CDDA 100% Signature: BF4E5DFB2ECCC4F7796FC3341D36998B96D65937FILE: 05 Ballad For A Music Box.flac Size: 31633597 Hash: 3253C5E451F838B6D17DED8173EEA489 Accuracy: -m0 Conclusion: CDDA 100% Signature: FB1B044C0445886479B779C2D87FAECC5DA2BEBCFILE: 04 Sweet Georgie Fame.flac Size: 33426817 Hash: 09E597AD77AC67B176B4C4A50D784D17 Accuracy: -m0 Conclusion: CDDA 100% Signature: 4B9AF6EA4584738E7C38AFF2D997B57202D9687CFILE: 03 Hot House.flac Size: 36569532 Hash: 711ABA1F66F541F068DD173506C6FF7E Accuracy: -m0 Conclusion: CDDA 100% Signature: 426824CAF7AF49D2E681524D63B5F9B5F4478237FILE: 02 Snowfall.flac Size: 33236400 Hash: 4239CF4D1869A983180A8518EA5C360F Accuracy: -m0 Conclusion: CDDA 100% Signature: 89B3A9F580EA78A111A5713E33DD6C9EEC1CF94BFILE: 01 Daahound.flac Size: 33754333 Hash: DC1162F53288DD8B2BDD704C4D30A14D Accuracy: -m0 Conclusion: CDDA 100% Signature: 4144330A61B936B5DDC29530ACE325E343CC24E3
Emily Remler (acoustic & electric guitars);
Hank Jones (piano);
Buster Williams (bass);
Marvin "Smitty" Smith (drums)


Трекер:  [ 29-Янв-2012 16:44 ]

  

Скачать .torrent

Размер .torrent файла 12 KB


Размер: 275 MB
Хэш (hash) релиза: 6e1e44794bd4dbcf53e94bf04961131bc1cd6e1d

Еще никто не оставлял запись к записи скачать торрент Emily Remler - East to Wes - 1988, FLAC . Будь первым!

!Обратная связь