Скачать через торрент музыку Hans Kennel Group Featuring Mark Soskin - Stella - 1997, FLAC бесплатно без регистрации torrent

Если у вас наблюдаются проблемы со скриншотами, переходом по ссылками, скачиванием торрентов - проблемы в блокировщике рекламы AdBlock. #хорошегоДня!


Статистика раздачи
Размер:  286 MB   |    Зарегистрирован:  5 лет 8 месяцев   |    .torrent скачан:  28 раз   |   
Раздают:  1  
   
Загрузка...
 
Автор Сообщение

Umakiro

avatar Umakiro


Hans Kennel Group Featuring Mark Soskin / Stella

Жанр: Post-Bop
Год издания диска: 1997
Издатель (лейбл): TCB
Номер по каталогу: TCB 97102
Страна: Switzerland
Аудиокодек: FLAC (*.flac)
Тип рипа: image+.cue
Битрейт аудио: lossless
Продолжительность: 00:49:45
Источник (релизер): karelin
Наличие сканов в содержимом раздачи: нет
Треклист:
01. Meltdown [06:04]
02. Moosruef [06:57]
03. 17 [07:31]
04. Stella By Starlight [05:11]
05. Snobben [06:23]
06. Varvisa [05:55]
07. Inca Princess [06:06]
08. Du liebe Bueb vom Emmital [05:35]
 
Exact Audio Copy V1.0 beta 1 from 15. November 2010

EAC extraction logfile from 11. December 2011, 0:59

Hans Kennel Group / Stella

Used drive : ATAPI DVD A DH20A4P Adapter: 1 ID: 0

Read mode : SecureUtilize accurate stream : YesDefeat audio cache : YesMake use of C2 pointers : No

Read offset correction : 6Overread into Lead-In and Lead-Out : NoFill up missing offset samples with silence : YesDelete leading and trailing silent blocks : NoNull samples used in CRC calculations : YesUsed interface : Installed external ASPI interface

Used output format : User Defined EncoderSelected bitrate : 1024 kBit/sQuality : HighAdd ID3 tag : NoCommand line compressor : C:\Program Files\Exact Audio Copy\Flac\flac.exeAdditional command line options : -5 -V -T "ARTIST=%a" -T "TITLE=%t" -T "ALBUM=%g" -T "DATE=%y" -T "TRACKNUMBER=%n" -T "GENRE=%m" -T "COMMENT=[oStereo.ru]" %s

TOC of the extracted CD

Track | Start | Length | Start sector | End sector --------------------------------------------------------- 1 | 0:00.01 | 6:04.42 | 1 | 27342 2 | 6:04.43 | 6:57.47 | 27343 | 58664 3 | 13:02.15 | 7:31.25 | 58665 | 92514 4 | 20:33.40 | 5:11.33 | 92515 | 115872 5 | 25:44.73 | 6:23.00 | 115873 | 144597 6 | 32:07.73 | 5:55.22 | 144598 | 171244 7 | 38:03.20 | 6:06.27 | 171245 | 198721 8 | 44:09.47 | 5:35.61 | 198722 | 223907

Range status and errors

Selected range

Filename D:\Hans Kennel Group - Stella - [oStereo.ru] - 1997 - ECM.wav

Peak level 100.0 % Extraction speed 0.3 X Range quality 100.0 % Test CRC B7771EBD Copy CRC B7771EBD Copy OK

No errors occurred

AccurateRip summary

Track 1 accurately ripped (confidence 2) [5CCF9A63]Track 2 accurately ripped (confidence 2) [1E3442FE]Track 3 accurately ripped (confidence 2) [C854D194]Track 4 accurately ripped (confidence 2) [95A0FF59]Track 5 accurately ripped (confidence 2) [3FBEE855]Track 6 accurately ripped (confidence 2) [C35B1258]Track 7 accurately ripped (confidence 2) [D34CD556]Track 8 accurately ripped (confidence 2) [5E1A105A]

All tracks accurately ripped

End of status report

==== Log checksum A6FF040C3BFFF741870C9FBD222CEDFC1A8E32C254A6B3BE89281973913E9EDF ====
 
REM GENRE JazzREM DATE 1997REM DISCID 730BA908REM COMMENT "ExactAudioCopy v1.0b1"PERFORMER "Hans Kennel Group"TITLE "Stella"FILE "Hans Kennel Group - Stella .flac" WAVE TRACK 01 AUDIO TITLE "Meltdown" PERFORMER "Hans Kennel Group" INDEX 00 00:00:00 INDEX 01 00:00:01 TRACK 02 AUDIO TITLE "Moosruef" PERFORMER "Hans Kennel Group" INDEX 01 06:04:43 TRACK 03 AUDIO TITLE "17" PERFORMER "Hans Kennel Group" INDEX 01 13:02:15 TRACK 04 AUDIO TITLE "Stella By Starlight" PERFORMER "Hans Kennel Group" INDEX 01 20:33:40 TRACK 05 AUDIO TITLE "Snobben" PERFORMER "Hans Kennel Group" INDEX 01 25:44:73 TRACK 06 AUDIO TITLE "Varvisa" PERFORMER "Hans Kennel Group" INDEX 01 32:07:73 TRACK 07 AUDIO TITLE "Inca Princess" PERFORMER "Hans Kennel Group" INDEX 01 38:03:20 TRACK 08 AUDIO TITLE "Du liebe Bueb vom Emmital" PERFORMER "Hans Kennel Group" INDEX 01 44:09:47
Hans Kennel - Arranger, Flugelhorn, Producer, Trumpet
Stephan Kurmann - Bass
Mark Soskin - Piano
Stephan Kurmann - bass
Nat Su - alt saxophone
Peter Schmidlin - drums


Трекер:  [ 29-Янв-2012 16:44 ]

  

Скачать .torrent

Размер .torrent файла 12 KB


Размер: 286 MB
Хэш (hash) релиза: db8dcd5b4672f5466613c58b6b652e4b3c6a9cd6

Еще никто не оставлял запись к записи скачать торрент Hans Kennel Group Featuring Mark Soskin - Stella - 1997, FLAC . Будь первым!

!Обратная связь