Скачать через торрент музыку Dag Arnesen Trio Ellen Andrea Wang, Pal Thowsen, Palle Mikkelborg - Norwegian Song 3 - 2010, FLAC бесплатно без регистрации torrent

Если у вас наблюдаются проблемы со скриншотами, переходом по ссылками, скачиванием торрентов - проблемы в блокировщике рекламы AdBlock. #хорошегоДня!


Статистика раздачи
Размер:  255 MB   |    Зарегистрирован:  5 лет 8 месяцев   |    .torrent скачан:  26 раз   |   
Раздают:  1  
   
Загрузка...
 
Автор Сообщение

Umakiro

avatar Umakiro


Dag Arnesen Trio Ellen Andrea Wang, Pal Thowsen, Palle Mikkelborg - Norwegian Song 3
Жанр: Contemporary Jazz
Страна-производитель диска: Norway
Год издания диска: 2010
Издатель (лейбл): Losen Records
Номер по каталогу: LOS 101-2
Страна: Bergen, Norway
Аудиокодек: FLAC (*.flac)
Тип рипа: tracks+.cue
Битрейт аудио: lossless
Продолжительность: 00:45:48
Источник (релизер): cifelius
Наличие сканов в содержимом раздачи: да
01. De naere ting [04:44]
02. Astrid mi Astrid [03:58]
03. Dialog [05:43]
04. Pal sine honer [04:58]
05. En morgen pa Vareggen [04:31]
06. I balladetone [03:51]
07. Den norske dalevise 2 [04:15]
08. God natt [05:02]
09. Dansende blomst [04:14]
10. Pausesignalet [04:26]
 
Exact Audio Copy V1.0 beta 2 from 29. April 2011

EAC extraction logfile from 12. October 2011, 0:28

Dag Arnesen Trio / Norwegian Song 3

Used drive : HL-DT-STDVDRAM GH24NS50 Adapter: 1 ID: 1

Read mode : SecureUtilize accurate stream : YesDefeat audio cache : YesMake use of C2 pointers : No

Read offset correction : 667Overread into Lead-In and Lead-Out : NoFill up missing offset samples with silence : YesDelete leading and trailing silent blocks : NoNull samples used in CRC calculations : YesUsed interface : Native Win32 interface for Win NT & 2000Gap handling : Appended to previous track

Used output format : User Defined EncoderSelected bitrate : 768 kBit/sQuality : HighAdd ID3 tag : NoCommand line compressor : E:\Programmi\Exact Audio Copy\Flac\flac.exeAdditional command line options : -8 -V -T "ARTIST=%artist%" -T "TITLE=%title%" -T "ALBUM=%albumtitle%" -T "DATE=%year%" -T "TRACKNUMBER=%tracknr%" -T "TOTALTRACKS=%numtracks%" -T "GENRE=%genre%" -T "ALBUMARTIST=%albumartist%" -T "ALBUM ARTIST=%albumartist%

TOC of the extracted CD

Track | Start | Length | Start sector | End sector --------------------------------------------------------- 1 | 0:00.00 | 4:46.60 | 0 | 21509 2 | 4:46.60 | 4:00.74 | 21510 | 39583 3 | 8:47.59 | 5:46.54 | 39584 | 65587 4 | 14:34.38 | 5:01.04 | 65588 | 88166 5 | 19:35.42 | 4:34.57 | 88167 | 108773 6 | 24:10.24 | 3:54.72 | 108774 | 126395 7 | 28:05.21 | 4:18.48 | 126396 | 145793 8 | 32:23.69 | 5:05.03 | 145794 | 168671 9 | 37:28.72 | 4:17.57 | 168672 | 188003 10 | 41:46.54 | 4:26.66 | 188004 | 208019

Track 1

Filename C:\Documents and Settings\user\Desktop\Dag Arnesen - Norwegian Song 3 (2010) [FLAC] {Losen Rec}\01 - De naere ting.wav

Pre-gap length 0:00:02.00

Peak level 98.5 % Extraction speed 1.1 X Track quality 99.9 % Test CRC 5C0E19A9 Copy CRC 5C0E19A9 Accurately ripped (confidence 4) [1967FDC3] (AR v1) Copy OK

Track 2

Filename C:\Documents and Settings\user\Desktop\Dag Arnesen - Norwegian Song 3 (2010) [FLAC] {Losen Rec}\02 - Astrid mi Astrid.wav

Pre-gap length 0:00:02.00

Peak level 98.3 % Extraction speed 1.2 X Track quality 99.9 % Test CRC B9C2B6E9 Copy CRC B9C2B6E9 Accurately ripped (confidence 4) [2FAF10DE] (AR v1) Copy OK

Track 3

Filename C:\Documents and Settings\user\Desktop\Dag Arnesen - Norwegian Song 3 (2010) [FLAC] {Losen Rec}\03 - Dialog.wav

Pre-gap length 0:00:02.00

Peak level 98.6 % Extraction speed 1.6 X Track quality 100.0 % Test CRC 38FDDD98 Copy CRC 38FDDD98 Accurately ripped (confidence 4) [8FA8A31A] (AR v1) Copy OK

Track 4

Filename C:\Documents and Settings\user\Desktop\Dag Arnesen - Norwegian Song 3 (2010) [FLAC] {Losen Rec}\04 - Pal sine honer.wav

Pre-gap length 0:00:03.00

Peak level 99.6 % Extraction speed 1.7 X Track quality 100.0 % Test CRC 11688F05 Copy CRC 11688F05 Accurately ripped (confidence 4) [E5091F7B] (AR v1) Copy OK

Track 5

Filename C:\Documents and Settings\user\Desktop\Dag Arnesen - Norwegian Song 3 (2010) [FLAC] {Losen Rec}\05 - En morgen pa Vareggen.wav

Pre-gap length 0:00:03.00

Peak level 98.8 % Extraction speed 1.8 X Track quality 100.0 % Test CRC 3D29453A Copy CRC 3D29453A Accurately ripped (confidence 4) [DA6244E1] (AR v1) Copy OK

Track 6

Filename C:\Documents and Settings\user\Desktop\Dag Arnesen - Norwegian Song 3 (2010) [FLAC] {Losen Rec}\06 - I balladetone.wav

Pre-gap length 0:00:03.00

Peak level 98.7 % Extraction speed 1.8 X Track quality 100.0 % Test CRC D4E34048 Copy CRC D4E34048 Accurately ripped (confidence 4) [2454979E] (AR v1) Copy OK

Track 7

Filename C:\Documents and Settings\user\Desktop\Dag Arnesen - Norwegian Song 3 (2010) [FLAC] {Losen Rec}\07 - Den norske dalevise 2.wav

Pre-gap length 0:00:02.74

Peak level 99.9 % Extraction speed 1.7 X Track quality 99.9 % Test CRC AC18C494 Copy CRC AC18C494 Accurately ripped (confidence 4) [EC5BD00E] (AR v1) Copy OK

Track 8

Filename C:\Documents and Settings\user\Desktop\Dag Arnesen - Norwegian Song 3 (2010) [FLAC] {Losen Rec}\08 - God natt.wav

Pre-gap length 0:00:03.00

Peak level 92.8 % Extraction speed 2.1 X Track quality 100.0 % Test CRC 58EB86A8 Copy CRC 58EB86A8 Accurately ripped (confidence 4) [8DA9B1F6] (AR v1) Copy OK

Track 9

Filename C:\Documents and Settings\user\Desktop\Dag Arnesen - Norwegian Song 3 (2010) [FLAC] {Losen Rec}\09 - Dansende blomst.wav

Pre-gap length 0:00:03.00

Peak level 98.7 % Extraction speed 2.2 X Track quality 100.0 % Test CRC 495BF18B Copy CRC 495BF18B Accurately ripped (confidence 4) [5CA04789] (AR v1) Copy OK

Track 10

Filename C:\Documents and Settings\user\Desktop\Dag Arnesen - Norwegian Song 3 (2010) [FLAC] {Losen Rec}\10 - Pausesignalet.wav

Pre-gap length 0:00:03.00

Peak level 98.5 % Extraction speed 2.2 X Track quality 100.0 % Test CRC 6217100E Copy CRC 6217100E Accurately ripped (confidence 4) [0209CA12] (AR v1) Copy OK

All tracks accurately ripped

No errors occurred

End of status report

==== Log checksum 8034633E18A9CE8911A97C5D17AB399583FA832F1253F6F946A6B1A1A50291C8 ====
 
REM GENRE JazzREM DATE 2010REM DISCID 960AD50AREM COMMENT "ExactAudioCopy v1.0b2"PERFORMER "Dag Arnesen Trio"TITLE "Norwegian Song 3 "FILE "01 - De naere ting.wav" WAVE TRACK 01 AUDIO TITLE "De naere ting" PERFORMER "Dag Arnesen Trio" INDEX 01 00:00:00 TRACK 02 AUDIO TITLE "Astrid mi Astrid" PERFORMER "Dag Arnesen Trio" INDEX 00 04:44:60FILE "02 - Astrid mi Astrid.wav" WAVE INDEX 01 00:00:00 TRACK 03 AUDIO TITLE "Dialog" PERFORMER "Dag Arnesen Trio" INDEX 00 03:58:74FILE "03 - Dialog.wav" WAVE INDEX 01 00:00:00 TRACK 04 AUDIO TITLE "Pal sine honer" PERFORMER "Dag Arnesen Trio" INDEX 00 05:43:54FILE "04 - Pal sine honer.wav" WAVE INDEX 01 00:00:00 TRACK 05 AUDIO TITLE "En morgen pa Vareggen" PERFORMER "Dag Arnesen Trio" INDEX 00 04:58:04FILE "05 - En morgen pa Vareggen.wav" WAVE INDEX 01 00:00:00 TRACK 06 AUDIO TITLE "I balladetone" PERFORMER "Dag Arnesen Trio" INDEX 00 04:31:57FILE "06 - I balladetone.wav" WAVE INDEX 01 00:00:00 TRACK 07 AUDIO TITLE "Den norske dalevise 2" PERFORMER "Dag Arnesen Trio" INDEX 00 03:51:73FILE "07 - Den norske dalevise 2.wav" WAVE INDEX 01 00:00:00 TRACK 08 AUDIO TITLE "God natt" PERFORMER "Dag Arnesen Trio" INDEX 00 04:15:48FILE "08 - God natt.wav" WAVE INDEX 01 00:00:00 TRACK 09 AUDIO TITLE "Dansende blomst" PERFORMER "Dag Arnesen Trio" INDEX 00 05:02:03FILE "09 - Dansende blomst.wav" WAVE INDEX 01 00:00:00 TRACK 10 AUDIO TITLE "Pausesignalet" PERFORMER "Dag Arnesen Trio" INDEX 00 04:14:57FILE "10 - Pausesignalet.wav" WAVE INDEX 01 00:00:00
Dag Arnesen: piano, synth
Ellen Andrea Wang: acoustic and electric basses
Pal Thowsen: drums, percussion
Palle Mikkelborg: trumpet, flugelhorn, beatboxing


Трекер:  [ 29-Янв-2012 16:43 ]

  

Скачать .torrent

Размер .torrent файла 21 KB


Размер: 255 MB
Хэш (hash) релиза: 5c9d4f0d2792f4bbb264ca83a57964b63a85b090

Еще никто не оставлял запись к записи скачать торрент Dag Arnesen Trio Ellen Andrea Wang, Pal Thowsen, Palle Mikkelborg - Norwegian Song 3 - 2010, FLAC . Будь первым!

!Обратная связь