Скачать через торрент музыку Rusty Bryant - Rusty Bryant Returns - бесплатно без регистрации torrent

Если у вас наблюдаются проблемы со скриншотами, переходом по ссылками, скачиванием торрентов - проблемы в блокировщике рекламы AdBlock. #хорошегоДня!


Статистика раздачи
Размер:  245 MB   |    Зарегистрирован:  5 лет 8 месяцев   |    .torrent скачан:  28 раз   |   
Раздают:  1  
   
Загрузка...
 
Автор Сообщение

Umakiro

avatar Umakiro


Rusty Bryant / Rusty Bryant Returns

Жанр: Soul Jazz
Страна-производитель диска: USA
Год издания диска: (1969) - 1995
Издатель (лейбл): Original Jazz Classics
Номер по каталогу: OJCCD-331-2
Страна: US Huntington, WV
Аудиокодек: FLAC (*.flac)
Тип рипа: image+.cue
Битрейт аудио: lossless
Продолжительность: 00:43:46
Источник (релизер): into09
Наличие сканов в содержимом раздачи: да
Треклист:
01. Zoo Boogaloo [07:24]
02. The Cat [07:54]
03. Ready Rusty? [04:49]
04. Streak O'Lean [05:59]
05. Night Flight [07:56]
06. All Day Long [09:41]
 
Exact Audio Copy V0.99 prebeta 4 from 23. January 2008

EAC extraction logfile from 27. September 2010, 11:57

Rusty Bryant / Rusty Bryant Returns

Used drive : _NEC DVD_RW ND-3500AG Adapter: 0 ID: 0

Read mode : SecureUtilize accurate stream : YesDefeat audio cache : YesMake use of C2 pointers : No

Read offset correction : 48Overread into Lead-In and Lead-Out : NoFill up missing offset samples with silence : YesDelete leading and trailing silent blocks : NoNull samples used in CRC calculations : YesUsed interface : Native Win32 interface for Win NT & 2000

Used output format : User Defined EncoderSelected bitrate : 768 kBit/sQuality : HighAdd ID3 tag : NoCommand line compressor : C:\Program Files\Exact Audio Copy\FLAC\FLAC.EXEAdditional command line options : -6 -V -T "ARTIST=%a" -T "TITLE=%t" -T "ALBUM=%g" -T "DATE=%y" -T "TRACKNUMBER=%n" -T "GENRE=%m" -T "COMMENT=%e" %s -o %d

TOC of the extracted CD

Track | Start | Length | Start sector | End sector --------------------------------------------------------- 1 | 0:00.00 | 7:24.23 | 0 | 33322 2 | 7:24.23 | 7:54.60 | 33323 | 68932 3 | 15:19.08 | 4:49.25 | 68933 | 90632 4 | 20:08.33 | 5:59.45 | 90633 | 117602 5 | 26:08.03 | 7:56.72 | 117603 | 153374 6 | 34:05.00 | 9:41.18 | 153375 | 196967

Range status and errors

Selected range

Filename J:\eMusic\Rip\Rusty Bryant - Rusty Bryant Returns.wav

Peak level 100.0 % Range quality 100.0 % Test CRC 657B4ECF Copy CRC 657B4ECF Copy OK

No errors occurred

AccurateRip summary

Track 1 not present in databaseTrack 2 not present in databaseTrack 3 not present in databaseTrack 4 not present in databaseTrack 5 not present in databaseTrack 6 not present in database

None of the tracks are present in the AccurateRip database

End of status report
 
REM GENRE JazzREM DATE 1969REM DISCID 3A0A4206REM COMMENT "ExactAudioCopy v0.99pb4"PERFORMER "Rusty Bryant"TITLE "Rusty Bryant Returns"FILE "Rusty Bryant - Rusty Bryant Returns.flac" WAVE TRACK 01 AUDIO TITLE "Zoo Boogaloo" PERFORMER "Rusty Bryant" INDEX 01 00:00:00 TRACK 02 AUDIO TITLE "The Cat" PERFORMER "Rusty Bryant" INDEX 00 07:21:33 INDEX 01 07:24:23 TRACK 03 AUDIO TITLE "Ready Rusty?" PERFORMER "Rusty Bryant" INDEX 00 15:14:48 INDEX 01 15:19:08 TRACK 04 AUDIO TITLE "Streak O'Lean" PERFORMER "Rusty Bryant" INDEX 00 20:06:43 INDEX 01 20:08:33 TRACK 05 AUDIO TITLE "Night Flight" PERFORMER "Rusty Bryant" INDEX 00 26:04:60 INDEX 01 26:08:03 TRACK 06 AUDIO TITLE "All Day Long" PERFORMER "Rusty Bryant" INDEX 00 34:02:38 INDEX 01 34:05:00
 
-----------------------

DON'T MODIFY THIS FILE

-----------------------

PERFORMER: auCDtect Task Manager, ver. 1.5.1RC6 build 1.5.1.7Copyright (c) 2008-2010 y-soft. All rights reservedhttp://y-soft.org

ANALYZER: auCDtect: CD records authenticity detector, version 0.8.2Copyright (c) 2004 Oleg Berngardt. All rights reserved.Copyright (c) 2004 Alexander Djourik. All rights reserved.

FILE: Rusty Bryant - Rusty Bryant Returns.flac Size: 252331121 Hash: B9B4C03BCA85DF4E72A97CA866BFF766 Accuracy: -m0 Conclusion: CDDA 100% Signature: 669780A1574F546C82B38B561916CEE20F86E312
Rusty Bryant (alto saxophone);
Grant Green (guitar);
Bob Bushnell (electric guitar, electric bass);
Sonny Phillips (organ);
Herb Lovelle (drums).


Трекер:  [ 29-Янв-2012 16:43 ]

  

Скачать .torrent

Размер .torrent файла 20 KB


Размер: 245 MB
Хэш (hash) релиза: 20505ac565b2acff3ad258cc357a2be3a346ff07

Еще никто не оставлял запись к записи скачать торрент Rusty Bryant - Rusty Bryant Returns - . Будь первым!

!Обратная связь