Скачать через торрент музыку Oliver Nelson - Sound Pieces - бесплатно без регистрации torrent

Если у вас наблюдаются проблемы со скриншотами, переходом по ссылками, скачиванием торрентов - проблемы в блокировщике рекламы AdBlock. #хорошегоДня!


Статистика раздачи
Размер:  332 MB   |    Зарегистрирован:  5 лет 8 месяцев   |    .torrent скачан:  30 раз   |   
Раздают:  1  
   
Загрузка...
 
Автор Сообщение

Umakiro

avatar Umakiro


Oliver Nelson - Sound Pieces

Жанр: Hard Bop, Post-Bop
Страна-производитель диска: Austria
Год издания диска: (1966) - 1991
Издатель (лейбл): (Impulse!) GRP
Номер по каталогу: GRP 11032
Страна: USA St. Louis, MO
Аудиокодек: FLAC (*.flac)
Тип рипа: image+.cue
Битрейт аудио: lossless
Продолжительность: 00:55:02
Источник (релизер): into
Наличие сканов в содержимом раздачи: да
Треклист:
01. Sound Pieces For Jazz Orchestra [09:40]
02. Flute Salad [02:47]
03. The Lady From Girl Talk [04:55]
04. The Shadow Of Your Smile [09:44]
05. Patterns [06:19]
06. Elegy For A Duck [06:23]
07. Straight No Chaser [09:10]
08. Example 78 [06:01]
 
Exact Audio Copy V0.99 prebeta 4 from 23. January 2008

EAC extraction logfile from 30. March 2010, 9:23

Oliver Nelson / Sound Pieces

Used drive : _NEC DVD_RW ND-3500AG Adapter: 0 ID: 0

Read mode : SecureUtilize accurate stream : YesDefeat audio cache : YesMake use of C2 pointers : No

Read offset correction : 48Overread into Lead-In and Lead-Out : NoFill up missing offset samples with silence : YesDelete leading and trailing silent blocks : NoNull samples used in CRC calculations : YesUsed interface : Native Win32 interface for Win NT & 2000

Used output format : User Defined EncoderSelected bitrate : 768 kBit/sQuality : HighAdd ID3 tag : NoCommand line compressor : C:\Program Files\Exact Audio Copy\FLAC\FLAC.EXEAdditional command line options : -6 -V -T "ARTIST=%a" -T "TITLE=%t" -T "ALBUM=%g" -T "DATE=%y" -T "TRACKNUMBER=%n" -T "GENRE=%m" -T "COMMENT=%e" %s -o %d

TOC of the extracted CD

Track | Start | Length | Start sector | End sector --------------------------------------------------------- 1 | 0:00.00 | 9:40.17 | 0 | 43516 2 | 9:40.17 | 2:47.60 | 43517 | 56101 3 | 12:28.02 | 4:55.05 | 56102 | 78231 4 | 17:23.07 | 9:44.43 | 78232 | 122074 5 | 27:07.50 | 6:19.32 | 122075 | 150531 6 | 33:27.07 | 6:23.15 | 150532 | 179271 7 | 39:50.22 | 9:10.58 | 179272 | 220579 8 | 49:01.05 | 6:01.42 | 220580 | 247696

Range status and errors

Selected range

Filename J:\eMusic\Rip\Oliver Nelson - Sound Pieces.wav

Peak level 100.0 % Range quality 100.0 % Test CRC 92ED830B Copy CRC 92ED830B Copy OK

No errors occurred

AccurateRip summary

Track 1 not present in databaseTrack 2 not present in databaseTrack 3 not present in databaseTrack 4 not present in databaseTrack 5 not present in databaseTrack 6 not present in databaseTrack 7 not present in databaseTrack 8 not present in database

None of the tracks are present in the AccurateRip database

End of status report
 
REM GENRE JazzREM DATE 1966REM DISCID 660CE608REM COMMENT "ExactAudioCopy v0.99pb4"PERFORMER "Oliver Nelson"TITLE "Sound Pieces"FILE "Oliver Nelson - Sound Pieces.flac" WAVE TRACK 01 AUDIO TITLE "Sound Pieces For Jazz Orchestra" PERFORMER "Oliver Nelson" INDEX 01 00:00:00 TRACK 02 AUDIO TITLE "Flute Salad" PERFORMER "Oliver Nelson" INDEX 01 09:40:17 TRACK 03 AUDIO TITLE "The Lady From Girl Talk" PERFORMER "Oliver Nelson" INDEX 01 12:28:02 TRACK 04 AUDIO TITLE "The Shadow Of Your Smile" PERFORMER "Oliver Nelson" INDEX 01 17:23:07 TRACK 05 AUDIO TITLE "Patterns" PERFORMER "Oliver Nelson" INDEX 01 27:07:50 TRACK 06 AUDIO TITLE "Elegy For A Duck" PERFORMER "Oliver Nelson" INDEX 01 33:27:07 TRACK 07 AUDIO TITLE "Straight No Chaser" PERFORMER "Oliver Nelson" INDEX 01 39:50:22 TRACK 08 AUDIO TITLE "Example 78" PERFORMER "Oliver Nelson" INDEX 01 49:01:05
 
-----------------------

DON'T MODIFY THIS FILE

-----------------------

PERFORMER: auCDtect Task Manager, ver. 1.5.1RC6 build 1.5.1.7Copyright (c) 2008-2010 y-soft. All rights reservedhttp://y-soft.org

ANALYZER: auCDtect: CD records authenticity detector, version 0.8.2Copyright (c) 2004 Oleg Berngardt. All rights reserved.Copyright (c) 2004 Alexander Djourik. All rights reserved.

FILE: Oliver Nelson - Sound Pieces.flac Size: 344516200 Hash: FE24C31021180836FC5DA9501E09D73C Accuracy: -m0 Conclusion: CDDA 100% Signature: 1A5F5AA3717E21545BD2FC01B28CF205A0DA9BF6
Oliver Nelson (soprano saxophone);
Gabe Baltazar, Bill Green , Jack Nimitz, Plas Johnson , Bill Perkins (reeds);
Conte Candoli, Al Porcino, John Audino, Ollie Mitchell, Bobby Bryant (trumpet);
Richard Perissi (flugelhorn, French horn);
Bill Hinshaw (French horn);
Dick Noel, Richard Leith, Mike Barone, Billy Byers, Ernie Tack (trombone);
Red Callender (tuba);
Mike Melvoin, Steve Kuhn (piano);
Grady Tate, Shelly Manne (drums)


Трекер:  [ 29-Янв-2012 16:42 ]

  

Скачать .torrent

Размер .torrent файла 14 KB


Размер: 332 MB
Хэш (hash) релиза: 7917501d5ceb7bfc98ad8c5a99f9b52cc7f4a89c

Еще никто не оставлял запись к записи скачать торрент Oliver Nelson - Sound Pieces - . Будь первым!

!Обратная связь