Скачать через торрент музыку Eddie "Lockjaw" Davis - Afro - Jaws - бесплатно без регистрации torrent

Если у вас наблюдаются проблемы со скриншотами, переходом по ссылками, скачиванием торрентов - проблемы в блокировщике рекламы AdBlock. #хорошегоДня!


Статистика раздачи
Размер:  251 MB   |    Зарегистрирован:  5 лет 8 месяцев   |    .torrent скачан:  29 раз   |   
Раздают:  1  
   
Загрузка...
 
Автор Сообщение

Umakiro

avatar Umakiro


Eddie "Lockjaw" Davis / Afro - Jaws

Жанр: Hard Bop, Soul-Jazz
Страна-производитель диска: USA
Год издания диска: (1961) - 1992
Издатель (лейбл): Riverside/OJC
Номер по каталогу: OJCCD-403-2
Страна: US New York, NY
Аудиокодек: FLAC (*.flac)
Тип рипа: tracks+.cue
Битрейт аудио: lossless
Продолжительность: 00:38:56
Источник (релизер): durmoll
Наличие сканов в содержимом раздачи: да
Треклист:
01. Wild Rice [04:53]
02. Guanco Lament [05:18]
03. Tin Tin Deo [05:10]
04. Jazz-A-Samba [04:14]
05. Alma Alegre (Happy Soul) [05:24]
06. Star Eyes [06:20]
07. Afro-Jaws [07:35]
 
Exact Audio Copy V1.0 beta 3 from 29. August 2011

EAC extraction logfile from 16. November 2011, 14:30

Eddie 'Lockjaw' Davis / Afro-Jaws

Used drive : ASUS DRW-20B1LT Adapter: 6 ID: 1

Read mode : SecureUtilize accurate stream : YesDefeat audio cache : YesMake use of C2 pointers : No

Read offset correction : 6Overread into Lead-In and Lead-Out : NoFill up missing offset samples with silence : YesDelete leading and trailing silent blocks : NoNull samples used in CRC calculations : YesUsed interface : Native Win32 interface for Win NT & 2000Gap handling : Appended to previous track

Used output format : Internal WAV RoutinesSample format : 44.100 Hz; 16 Bit; Stereo

TOC of the extracted CD

Track | Start | Length | Start sector | End sector --------------------------------------------------------- 1 | 0:00.00 | 4:55.00 | 0 | 22124 2 | 4:55.00 | 5:20.67 | 22125 | 46191 3 | 10:15.67 | 5:11.60 | 46192 | 69576 4 | 15:27.52 | 4:16.00 | 69577 | 88776 5 | 19:43.52 | 5:25.40 | 88777 | 113191 6 | 25:09.17 | 6:22.10 | 113192 | 141851 7 | 31:31.27 | 7:35.73 | 141852 | 176049

Track 1

Filename C:\rip\01 - Wild Rice.wav

Pre-gap length 0:00:02.00

Peak level 85.0 % Extraction speed 50.8 X Track quality 100.0 % Test CRC 16416C7D Copy CRC 16416C7D Track not present in AccurateRip database Copy OK

Track 2

Filename C:\rip\02 - Guanco Lament.wav

Pre-gap length 0:00:01.67

Peak level 84.9 % Extraction speed 37.4 X Track quality 100.0 % Test CRC D391A268 Copy CRC D391A268 Track not present in AccurateRip database Copy OK

Track 3

Filename C:\rip\03 - Tin Tin Deo.wav

Pre-gap length 0:00:02.23

Peak level 89.5 % Extraction speed 40.8 X Track quality 100.0 % Test CRC 8592F5B7 Copy CRC 8592F5B7 Track not present in AccurateRip database Copy OK

Track 4

Filename C:\rip\04 - Jazz-A-Samba.wav

Pre-gap length 0:00:01.41

Peak level 93.0 % Extraction speed 45.8 X Track quality 100.0 % Test CRC B68C2364 Copy CRC B68C2364 Track not present in AccurateRip database Copy OK

Track 5

Filename C:\rip\05 - Alma Alegre (Happy Soul).wav

Pre-gap length 0:00:01.68

Peak level 92.5 % Extraction speed 48.0 X Track quality 100.0 % Test CRC 2BE216C4 Copy CRC 2BE216C4 Track not present in AccurateRip database Copy OK

Track 6

Filename C:\rip\06 - Star Eyes.wav

Pre-gap length 0:00:01.38

Peak level 90.1 % Extraction speed 44.2 X Track quality 99.9 % Test CRC CFDBBF40 Copy CRC CFDBBF40 Track not present in AccurateRip database Copy OK

Track 7

Filename C:\rip\07 - Afro-Jaws.wav

Pre-gap length 0:00:02.06

Peak level 86.6 % Extraction speed 56.3 X Track quality 100.0 % Test CRC 3D9EA3E0 Copy CRC 3D9EA3E0 Track not present in AccurateRip database Copy OK

None of the tracks are present in the AccurateRip database

No errors occurred

End of status report

==== Log checksum 55136FEF6B1A317668F3E681FB78FB4A4FC42E227640AC20AAF54583DC75A609 ====
 
REM DISCID 62092B07REM COMMENT "ExactAudioCopy v1.0b3"PERFORMER "Eddie 'Lockjaw' Davis"TITLE "Afro-Jaws"FILE "01 - Wild Rice.wav" WAVE TRACK 01 AUDIO TITLE "Wild Rice" PERFORMER "Eddie 'Lockjaw' Davis" INDEX 01 00:00:00 TRACK 02 AUDIO TITLE "Guanco Lament" PERFORMER "Eddie 'Lockjaw' Davis" INDEX 00 04:53:08FILE "02 - Guanco Lament.wav" WAVE INDEX 01 00:00:00 TRACK 03 AUDIO TITLE "Tin Tin Deo" PERFORMER "Eddie 'Lockjaw' Davis" INDEX 00 05:18:44FILE "03 - Tin Tin Deo.wav" WAVE INDEX 01 00:00:00 TRACK 04 AUDIO TITLE "Jazz-A-Samba" PERFORMER "Eddie 'Lockjaw' Davis" INDEX 00 05:10:19FILE "04 - Jazz-A-Samba.wav" WAVE INDEX 01 00:00:00 TRACK 05 AUDIO TITLE "Alma Alegre (Happy Soul)" PERFORMER "Eddie 'Lockjaw' Davis" INDEX 00 04:14:07FILE "05 - Alma Alegre (Happy Soul).wav" WAVE INDEX 01 00:00:00 TRACK 06 AUDIO TITLE "Star Eyes" PERFORMER "Eddie 'Lockjaw' Davis" INDEX 00 05:24:02FILE "06 - Star Eyes.wav" WAVE INDEX 01 00:00:00 TRACK 07 AUDIO TITLE "Afro-Jaws" PERFORMER "Eddie 'Lockjaw' Davis" INDEX 00 06:20:04FILE "07 - Afro-Jaws.wav" WAVE INDEX 01 00:00:00
 
-----------------------

DON'T MODIFY THIS FILE

-----------------------

PERFORMER: auCDtect Task Manager, ver. 1.5.1RC6 build 1.5.1.7Copyright (c) 2008-2010 y-soft. All rights reservedhttp://y-soft.org

ANALYZER: auCDtect: CD records authenticity detector, version 0.8.2Copyright (c) 2004 Oleg Berngardt. All rights reserved.Copyright (c) 2004 Alexander Djourik. All rights reserved.

FILE: 07 - Afro-Jaws.flac Size: 51248250 Hash: B2809B7E587B9B620E05FFBC3444A334 Accuracy: -m0 Conclusion: CDDA 100% Signature: C5960EAA795F2BFBA696AF9CDECA643F01D8928AFILE: 06 - Star Eyes.flac Size: 39421356 Hash: 570EB10F2E542434A9D7FF35738CCEF2 Accuracy: -m0 Conclusion: CDDA 100% Signature: D373B4030ED9592F790E0D1F80D500746BCF2BE6FILE: 05 - Alma Alegre (Happy Soul).flac Size: 35793120 Hash: 5313110F586D3CF0F9FAEBDA1FAE26A8 Accuracy: -m0 Conclusion: CDDA 100% Signature: AC5FB58C2A831209BFFA12FFB245980B73AD21F8FILE: 04 - Jazz-A-Samba.flac Size: 29621627 Hash: B8C8C82D6026E9DC3D9CFB3A1F6420BB Accuracy: -m0 Conclusion: CDDA 100% Signature: 8EBDBA062176470743F1F2ABFFA2EF72FD5096A3FILE: 03 - Tin Tin Deo.flac Size: 32982614 Hash: 105E818A6FCF7DD83EACC13817EC42E3 Accuracy: -m0 Conclusion: CDDA 100% Signature: E7637A39FE15F730830C6163F880EBF2A1D16B5AFILE: 02 - Guanco Lament.flac Size: 33314317 Hash: DC2B3DFF63AA86D2B68360EDF23756AF Accuracy: -m0 Conclusion: CDDA 99% Signature: 9EA562B03B18F8BD154124D7473693479C93B599FILE: 01 - Wild Rice.flac Size: 33186140 Hash: 0DC0172BD1CB2F0B25857D4436BAF648 Accuracy: -m0 Conclusion: CDDA 100% Signature: 278CB15A62F45AC575C1F261224DB45D07716414
Eddie "Lockjaw" Davis (saxophone, tenor saxophone);
Ray Barretto (quinto, congas, bongos, percussion);
Clark Terry (trumpet, flugelhorn);
Ernie Royal, John Bello, Phil Sunkel (trumpet);
Lloyd Mayers (piano);
Ben Riley (drums)
.


Трекер:  [ 29-Янв-2012 16:42 ]

  

Скачать .torrent

Размер .torrent файла 21 KB


Размер: 251 MB
Хэш (hash) релиза: dbcd913923f4c35e1db613cd55fda1cf6d3770b6

Еще никто не оставлял запись к записи скачать торрент Eddie "Lockjaw" Davis - Afro - Jaws - . Будь первым!

!Обратная связь