Скачать через торрент музыку John Hicks - Hells Bells - бесплатно без регистрации torrent

Если у вас наблюдаются проблемы со скриншотами, переходом по ссылками, скачиванием торрентов - проблемы в блокировщике рекламы AdBlock. #хорошегоДня!


Статистика раздачи
Размер:  225 MB   |    Зарегистрирован:  5 лет 8 месяцев   |    .torrent скачан:  41 раз   |   
Раздают:  1  
   
Загрузка...
 
Автор Сообщение

Umakiro

avatar Umakiro


John Hicks / Hells Bells

Жанр: Post-Bop
Страна-производитель диска: Germany
Год издания диска: (1980) - 1990
Издатель (лейбл): Strata-East / Bellaphon
Номер по каталогу: SECD 9002 / 660-51-002
Страна: US Atlanta, GA
Аудиокодек: APE (*.ape)
Тип рипа: image+.cue
Битрейт аудио: lossless
Продолжительность: 00:38:31
Источник (релизер): malieff
Наличие сканов в содержимом раздачи: да
Треклист:

01. Hells Bells [09:41]
02. Avojca [08:40]
03. Yemenja [10:47]
04. Angies Tune [09:22]
 
Exact Audio Copy V1.0 beta 2 from 29. April 2011

EAC extraction logfile from 17. December 2011, 15:20

John Hicks Trio / Hells Bells

Used drive : Optiarc DVD RW AD-7243S Adapter: 4 ID: 0

Read mode : SecureUtilize accurate stream : YesDefeat audio cache : YesMake use of C2 pointers : No

Read offset correction : 48Overread into Lead-In and Lead-Out : NoFill up missing offset samples with silence : YesDelete leading and trailing silent blocks : NoNull samples used in CRC calculations : YesUsed interface : Native Win32 interface for Win NT & 2000

Used output format : Internal WAV RoutinesSample format : 44.100 Hz; 16 Bit; Stereo

TOC of the extracted CD

Track | Start | Length | Start sector | End sector --------------------------------------------------------- 1 | 0:00.00 | 9:41.31 | 0 | 43605 2 | 9:41.31 | 8:40.41 | 43606 | 82646 3 | 18:21.72 | 10:47.57 | 82647 | 131228 4 | 29:09.54 | 9:22.16 | 131229 | 173394

Range status and errors

Selected range

Filename E:\1\John Hicks Trio - Hells Bells.wav

Peak level 87.8 % Extraction speed 3.8 X Range quality 100.0 % Copy CRC 50C67384 Copy OK

No errors occurred

AccurateRip summary

Track 1 not present in databaseTrack 2 not present in databaseTrack 3 not present in databaseTrack 4 not present in database

None of the tracks are present in the AccurateRip database

End of status report
 
REM GENRE JazzREM DATE 1975REM DISCID 25090704REM COMMENT "ExactAudioCopy v1.0b2"PERFORMER "John Hicks Trio"TITLE "Hells Bells"FILE "John Hicks Trio - Hells Bells.ape" WAVE TRACK 01 AUDIO TITLE "Hells Bells" PERFORMER "John Hicks Trio" INDEX 01 00:00:00 TRACK 02 AUDIO TITLE "Avojca" PERFORMER "John Hicks Trio" INDEX 01 09:41:31 TRACK 03 AUDIO TITLE "Yemenja" PERFORMER "John Hicks Trio" INDEX 01 18:21:72 TRACK 04 AUDIO TITLE "Angies Tune" PERFORMER "John Hicks Trio" INDEX 01 29:09:54
 
-----------------------

DON'T MODIFY THIS FILE

-----------------------

PERFORMER: auCDtect Task Manager, ver. 1.5.1RC3 build 1.5.1.4Copyright (c) 2008-2010 y-soft. All rights reservedhttp://y-soft.org

ANALYZER: auCDtect: CD records authenticity detector, version 0.8.2Copyright (c) 2004 Oleg Berngardt. All rights reserved.Copyright (c) 2004 Alexander Djourik. All rights reserved.

FILE: John Hicks Trio - Hells Bells.ape Size: 235146728 Hash: DC56FC10A73CB7F6AB61A13D1A3C2487 Accuracy: -m0 Conclusion: CDDA 100% Signature: 9A2E2340E96A05E15FFB5D3E69298154718535B6
Bass – Clint Houston
Drums – Cliff Barbaro*
Piano [Uncredited] – John Hicks


Трекер:  [ 29-Янв-2012 16:41 ]

  

Скачать .torrent

Размер .torrent файла 18 KB


Размер: 225 MB
Хэш (hash) релиза: 7c731148abba4f22b9722f284a3b0f08c29ac612

Еще никто не оставлял запись к записи скачать торрент John Hicks - Hells Bells - . Будь первым!

!Обратная связь