Скачать через торрент музыку Art Pepper - The Art Pepper Quartet - бесплатно без регистрации torrent

Если у вас наблюдаются проблемы со скриншотами, переходом по ссылками, скачиванием торрентов - проблемы в блокировщике рекламы AdBlock. #хорошегоДня!


Статистика раздачи
Размер:  144 MB   |    Зарегистрирован:  5 лет 8 месяцев   |    .torrent скачан:  25 раз   |   
Раздают:  1  
   
Загрузка...
 
Автор Сообщение

Umakiro

avatar Umakiro


Art Pepper / The Art Pepper Quartet

Жанр: Post-Bop
Страна-производитель диска: USA
Год издания диска: (1956) - 1994
Издатель (лейбл): Tampa/OJC
Номер по каталогу: TP-20 / OJCCD-816-2
Страна: US Gardena, CA
Аудиокодек: FLAC (*.flac)
Тип рипа: image+.cue
Битрейт аудио: lossless
Продолжительность: 00:43:45
Источник (релизер): LLW
Наличие сканов в содержимом раздачи: да
Треклист:
01. Art's Opus [05:48]
02. I Surrender Dear [05:31]
03. Diane [03:35]
04. Pepper Pot [05:03]
05. Besame Mucho [04:00]
06. Blues At Twilight [03:58]
07. Val's Pal [02:03]
08. Pepper Pot alt [02:27]
09. Blues At Twilight alt [04:02]
10. Val's Pal alt 1 [02:26]
11. Val's Pal alt 4 [02:22]
12. Val's Pal alt 5 [02:14]
 
Exact Audio Copy V0.99 prebeta 5 from 4. May 2009

EAC extraction logfile from 27. February 2011, 14:37

Art Pepper / The Art Pepper Quartet

Used drive : PLEXTOR DVDR PX-806SA Adapter: 6 ID: 2

Read mode : SecureUtilize accurate stream : YesDefeat audio cache : YesMake use of C2 pointers : No

Read offset correction : 6Overread into Lead-In and Lead-Out : NoFill up missing offset samples with silence : YesDelete leading and trailing silent blocks : NoNull samples used in CRC calculations : YesUsed interface : Native Win32 interface for Win NT & 2000

Used output format : Internal WAV RoutinesSample format : 44.100 Hz; 16 Bit; Stereo

TOC of the extracted CD

Track | Start | Length | Start sector | End sector --------------------------------------------------------- 1 | 0:00.00 | 5:48.50 | 0 | 26149 2 | 5:48.50 | 5:31.08 | 26150 | 50982 3 | 11:19.58 | 3:35.40 | 50983 | 67147 4 | 14:55.23 | 5:03.35 | 67148 | 89907 5 | 19:58.58 | 4:00.60 | 89908 | 107967 6 | 23:59.43 | 3:58.07 | 107968 | 125824 7 | 27:57.50 | 2:03.50 | 125825 | 135099 8 | 30:01.25 | 2:27.53 | 135100 | 146177 9 | 32:29.03 | 4:02.60 | 146178 | 164387 10 | 36:31.63 | 2:26.60 | 164388 | 175397 11 | 38:58.48 | 2:22.17 | 175398 | 186064 12 | 41:20.65 | 2:14.33 | 186065 | 196147

Range status and errors

Selected range

Filename C:\rip\Art Pepper - The Art Pepper Quartet.wav

Peak level 100.0 % Range quality 100.0 % Test CRC 92C14139 Copy CRC 92C14139 Copy OK

No errors occurred

AccurateRip summary

Track 1 accurately ripped (confidence 2) [83233355]Track 2 accurately ripped (confidence 2) [7AD1BD28]Track 3 accurately ripped (confidence 2) [46BDEDCB]Track 4 accurately ripped (confidence 2) [68F7C8B9]Track 5 accurately ripped (confidence 2) [E783C25B]Track 6 accurately ripped (confidence 2) [A9C260D6]Track 7 accurately ripped (confidence 2) [6A7B7F8F]Track 8 accurately ripped (confidence 2) [577FBDDD]Track 9 accurately ripped (confidence 2) [615A3707]Track 10 accurately ripped (confidence 2) [71A62354]Track 11 accurately ripped (confidence 2) [05621E07]Track 12 accurately ripped (confidence 2) [D4B5A84C]

All tracks accurately ripped

End of status report
 
REM DISCID 990A370CREM COMMENT "ExactAudioCopy v0.99pb5"PERFORMER "Art Pepper"TITLE "The Art Pepper Quartet"FILE "Art Pepper - The Art Pepper Quartet.wav" WAVE TRACK 01 AUDIO TITLE "Art's Opus" PERFORMER "Art Pepper" INDEX 01 00:00:00 TRACK 02 AUDIO TITLE "I Surrender Dear" PERFORMER "Art Pepper" INDEX 01 05:48:50 TRACK 03 AUDIO TITLE "Diane" PERFORMER "Art Pepper" INDEX 01 11:19:58 TRACK 04 AUDIO TITLE "Pepper Pot" PERFORMER "Art Pepper" INDEX 01 14:55:23 TRACK 05 AUDIO TITLE "Besame Mucho" PERFORMER "Art Pepper" INDEX 01 19:58:58 TRACK 06 AUDIO TITLE "Blues At Twilight" PERFORMER "Art Pepper" INDEX 01 23:59:43 TRACK 07 AUDIO TITLE "Val's Pal" PERFORMER "Art Pepper" INDEX 01 27:57:50 TRACK 08 AUDIO TITLE "Pepper Pot alt" PERFORMER "Art Pepper" INDEX 01 30:01:25 TRACK 09 AUDIO TITLE "Blues At Twilight alt" PERFORMER "Art Pepper" INDEX 01 32:29:03 TRACK 10 AUDIO TITLE "Val's Pal alt 1" PERFORMER "Art Pepper" INDEX 01 36:31:63 TRACK 11 AUDIO TITLE "Val's Pal alt 4" PERFORMER "Art Pepper" INDEX 01 38:58:48 TRACK 12 AUDIO TITLE "Val's Pal alt 5" PERFORMER "Art Pepper" INDEX 01 41:20:65
 
-----------------------

DON'T MODIFY THIS FILE

-----------------------

PERFORMER: auCDtect Task Manager, ver. 1.5.1RC6 build 1.5.1.7Copyright (c) 2008-2010 y-soft. All rights reservedhttp://y-soft.org

ANALYZER: auCDtect: CD records authenticity detector, version 0.8.2Copyright (c) 2004 Oleg Berngardt. All rights reserved.Copyright (c) 2004 Alexander Djourik. All rights reserved.

FILE: Art Pepper - The Art Pepper Quartet.flac Size: 137539951 Hash: 4DE4395F159CFAAFB48AA92CE4FB978B Accuracy: -m0 Conclusion: CDDA 100% Signature: BC55488BB8BD8B7E9B8F39E2133AD109DB4C5894
Art Pepper (alto saxophone);
Russ Freeman (piano);
Ben Tucker (bass);
Gary Frommer (drums)


Трекер:  [ 29-Янв-2012 16:41 ]

  

Скачать .torrent

Размер .torrent файла 12 KB


Размер: 144 MB
Хэш (hash) релиза: f45077fcb33f0ee05e242b510288be90e9a7d8c2

Еще никто не оставлял запись к записи скачать торрент Art Pepper - The Art Pepper Quartet - . Будь первым!

!Обратная связь