Скачать через торрент музыку Wynton Marsalis - Dejavu Retro Gold Collection бесплатно без регистрации torrent

Если у вас наблюдаются проблемы со скриншотами, переходом по ссылками, скачиванием торрентов - проблемы в блокировщике рекламы AdBlock. #хорошегоДня!


Статистика раздачи
Размер:  666 MB   |    Зарегистрирован:  5 лет 8 месяцев   |    .torrent скачан:  32 раза   |   
Раздают:  1  
   
Загрузка...
 
Автор Сообщение

Umakiro

avatar Umakiro


Wynton Marsalis / Dejavu Retro Gold Collection [2CD's]

Жанр: Neo-Bop, Contemporary Jazz
Страна-производитель диска: EEC
Год издания диска: 2001
Издатель (лейбл): Recording Arts
Номер по каталогу: R2CD 40-41
Страна: USA New Orleans, LA
Аудиокодек: FLAC (*.flac)
Тип рипа: tracks+.cue
Битрейт аудио: lossless
Источник (релизер): Lame
Наличие сканов в содержимом раздачи: да
01. One By One [05:31]
02. My Funny Valentine [09:09]
03. Round 'Bout Midnight [06:59]
04. Eta [06:03]
05. Time Will Tell [12:17]
06. Blakey's Theme [02:52]
07. Angel Eyes [09:14]
08. Bitter Dose [10:45]
Продолжительность: 01:02:53
 
Exact Audio Copy V1.0 beta 3 from 29. August 2011

EAC extraction logfile from 13. December 2011, 17:09

Wynton Marsalis / Wynton Marsalis, CD1

Used drive : HL-DT-STDVDRAM GSA-4167B Adapter: 3 ID: 1

Read mode : SecureUtilize accurate stream : YesDefeat audio cache : YesMake use of C2 pointers : No

Read offset correction : 667Overread into Lead-In and Lead-Out : NoFill up missing offset samples with silence : YesDelete leading and trailing silent blocks : NoNull samples used in CRC calculations : YesUsed interface : Native Win32 interface for Win NT & 2000Gap handling : Appended to previous track

Used output format : User Defined EncoderSelected bitrate : 256 kBit/sQuality : HighAdd ID3 tag : NoCommand line compressor : C:\Archivos de programa\Exact Audio Copy\Flac\flac.exeAdditional command line options : -8 -V -T "ARTIST=%artist%" -T "TITLE=%title%" -T "ALBUM=%albumtitle%" -T "DATE=%year%" -T "TRACKNUMBER=%tracknr%" -T "TOTALTRACKS=%numtracks%" -T "GENRE=%genre%" -T "ALBUMARTIST=%albumartist%" -T "ALBUM ARTIST=%albumartist%" -T "COMMENT=EAC Secure Mode, Test & Copy, AccurateRip, FLAC -8" %source%

TOC of the extracted CD

Track | Start | Length | Start sector | End sector --------------------------------------------------------- 1 | 0:00.00 | 5:31.40 | 0 | 24864 2 | 5:31.40 | 9:09.15 | 24865 | 66054 3 | 14:40.55 | 6:59.35 | 66055 | 97514 4 | 21:40.15 | 6:03.17 | 97515 | 124756 5 | 27:43.32 | 12:17.40 | 124757 | 180071 6 | 40:00.72 | 2:52.20 | 180072 | 192991 7 | 42:53.17 | 9:14.45 | 192992 | 234586 8 | 52:07.62 | 10:45.60 | 234587 | 283021

Track 1

Filename D:\EACRips\Wynton Marsalis - Wynton Marsalis (1997) [FLAC]\CD1\01 - One By One.wav

Pre-gap length 0:00:02.00

Peak level 78.7 % Extraction speed 4.7 X Track quality 100.0 % Test CRC ECC0C43D Copy CRC ECC0C43D Cannot be verified as accurate (confidence 8) [48439AAA], AccurateRip returned [FD2CA2E6] (AR v2) Copy OK

Track 2

Filename D:\EACRips\Wynton Marsalis - Wynton Marsalis (1997) [FLAC]\CD1\02 - My Funny Valentine.wav

Peak level 79.5 % Extraction speed 5.7 X Track quality 100.0 % Test CRC 67F14A3C Copy CRC 67F14A3C Cannot be verified as accurate (confidence 8) [DDCD1A57], AccurateRip returned [D5D14124] (AR v2) Copy OK

Track 3

Filename D:\EACRips\Wynton Marsalis - Wynton Marsalis (1997) [FLAC]\CD1\03 - Round 'Bout Midnight.wav

Peak level 80.8 % Extraction speed 6.3 X Track quality 100.0 % Test CRC 1300BF7E Copy CRC 1300BF7E Cannot be verified as accurate (confidence 9) [0A00B5EF], AccurateRip returned [42BDB007] (AR v2) Copy OK

Track 4

Filename D:\EACRips\Wynton Marsalis - Wynton Marsalis (1997) [FLAC]\CD1\04 - Eta.wav

Peak level 85.0 % Extraction speed 5.8 X Track quality 99.9 % Test CRC D97FFCC5 Copy CRC D97FFCC5 Cannot be verified as accurate (confidence 9) [3111D252], AccurateRip returned [A5669666] (AR v2) Copy OK

Track 5

Filename D:\EACRips\Wynton Marsalis - Wynton Marsalis (1997) [FLAC]\CD1\05 - Time Will Tell.wav

Peak level 76.9 % Extraction speed 7.6 X Track quality 100.0 % Test CRC EADB426D Copy CRC EADB426D Cannot be verified as accurate (confidence 9) [CEF836BE], AccurateRip returned [92614E02] (AR v2) Copy OK

Track 6

Filename D:\EACRips\Wynton Marsalis - Wynton Marsalis (1997) [FLAC]\CD1\06 - Blakey's Theme.wav

Peak level 75.7 % Extraction speed 6.8 X Track quality 100.0 % Test CRC 4FDFA5A2 Copy CRC 4FDFA5A2 Cannot be verified as accurate (confidence 9) [7343556B], AccurateRip returned [CCA80E94] (AR v2) Copy OK

Track 7

Filename D:\EACRips\Wynton Marsalis - Wynton Marsalis (1997) [FLAC]\CD1\07 - Angel Eyes.wav

Peak level 100.0 % Extraction speed 8.4 X Track quality 100.0 % Test CRC 3B312381 Copy CRC 3B312381 Cannot be verified as accurate (confidence 9) [1C89624D], AccurateRip returned [4520C6FF] (AR v2) Copy OK

Track 8

Filename D:\EACRips\Wynton Marsalis - Wynton Marsalis (1997) [FLAC]\CD1\08 - Bitter Dose.wav

Peak level 92.4 % Extraction speed 9.1 X Track quality 100.0 % Test CRC B8E7AB97 Copy CRC B8E7AB97 Cannot be verified as accurate (confidence 9) [174D56EB], AccurateRip returned [FE3A4452] (AR v2) Copy OK

No tracks could be verified as accurateYou may have a different pressing from the one(s) in the database

No errors occurred

End of status report

==== Log checksum 5E9A03B98CDB2E4738774F9B3DEE694AE15266BD991545B6894B843430AFA092 ====
 
REM GENRE JazzREM DATE 1997REM DISCID 5F0EBD08REM COMMENT "ExactAudioCopy v1.0b3"PERFORMER "Wynton Marsalis"TITLE "Wynton Marsalis, CD1"FILE "01 - One By One.wav" WAVE TRACK 01 AUDIO TITLE "One By One" PERFORMER "Wynton Marsalis" INDEX 01 00:00:00FILE "02 - My Funny Valentine.wav" WAVE TRACK 02 AUDIO TITLE "My Funny Valentine" PERFORMER "Wynton Marsalis" INDEX 01 00:00:00FILE "03 - Round 'Bout Midnight.wav" WAVE TRACK 03 AUDIO TITLE "Round 'Bout Midnight" PERFORMER "Wynton Marsalis" INDEX 01 00:00:00FILE "04 - Eta.wav" WAVE TRACK 04 AUDIO TITLE "Eta" PERFORMER "Wynton Marsalis" INDEX 01 00:00:00FILE "05 - Time Will Tell.wav" WAVE TRACK 05 AUDIO TITLE "Time Will Tell" PERFORMER "Wynton Marsalis" INDEX 01 00:00:00FILE "06 - Blakey's Theme.wav" WAVE TRACK 06 AUDIO TITLE "Blakey's Theme" PERFORMER "Wynton Marsalis" INDEX 01 00:00:00FILE "07 - Angel Eyes.wav" WAVE TRACK 07 AUDIO TITLE "Angel Eyes" PERFORMER "Wynton Marsalis" INDEX 01 00:00:00FILE "08 - Bitter Dose.wav" WAVE TRACK 08 AUDIO TITLE "Bitter Dose" PERFORMER "Wynton Marsalis" INDEX 01 00:00:00
01. Jodi [06:23]
02. Wheel Within A Wheel [06:32]
03. Gypsy [06:21]
04. Moanin' [10:22]
05. Soulful Mr. Timmons [10:17]
06. My Ideal [06:07]
07. Free For All [07:04]
Продолжительность: 00:53:09
 
Exact Audio Copy V1.0 beta 3 from 29. August 2011

EAC extraction logfile from 13. December 2011, 22:04

Wynton Marsalis / Wynton Marsalis, CD2

Used drive : HL-DT-STDVDRAM GSA-4167B Adapter: 3 ID: 1

Read mode : SecureUtilize accurate stream : YesDefeat audio cache : YesMake use of C2 pointers : No

Read offset correction : 667Overread into Lead-In and Lead-Out : NoFill up missing offset samples with silence : YesDelete leading and trailing silent blocks : NoNull samples used in CRC calculations : YesUsed interface : Native Win32 interface for Win NT & 2000Gap handling : Appended to previous track

Used output format : User Defined EncoderSelected bitrate : 256 kBit/sQuality : HighAdd ID3 tag : NoCommand line compressor : C:\Archivos de programa\Exact Audio Copy\Flac\flac.exeAdditional command line options : -8 -V -T "ARTIST=%artist%" -T "TITLE=%title%" -T "ALBUM=%albumtitle%" -T "DATE=%year%" -T "TRACKNUMBER=%tracknr%" -T "TOTALTRACKS=%numtracks%" -T "GENRE=%genre%" -T "ALBUMARTIST=%albumartist%" -T "ALBUM ARTIST=%albumartist%" -T "COMMENT=EAC Secure Mode, Test & Copy, AccurateRip, FLAC -8" %source%

TOC of the extracted CD

Track | Start | Length | Start sector | End sector --------------------------------------------------------- 1 | 0:00.00 | 6:23.27 | 0 | 28751 2 | 6:23.27 | 6:32.37 | 28752 | 58188 3 | 12:55.64 | 6:21.46 | 58189 | 86809 4 | 19:17.35 | 10:22.60 | 86810 | 133519 5 | 29:40.20 | 10:17.50 | 133520 | 179844 6 | 39:57.70 | 6:07.12 | 179845 | 207381 7 | 46:05.07 | 7:04.63 | 207382 | 239244

Track 1

Filename D:\EACRips\Wynton Marsalis - Wynton Marsalis (1997) [FLAC]\CD2\01 - Jodi.wav

Pre-gap length 0:00:02.00

Peak level 94.3 % Extraction speed 2.9 X Track quality 100.0 % Test CRC 53FF7D6F Copy CRC 53FF7D6F Accurately ripped (confidence 2) [B4631DCC] (AR v2) Copy OK

Track 2

Filename D:\EACRips\Wynton Marsalis - Wynton Marsalis (1997) [FLAC]\CD2\02 - Wheel Within A Wheel.wav

Peak level 91.4 % Extraction speed 3.4 X Track quality 100.0 % Test CRC 945580C0 Copy CRC 945580C0 Accurately ripped (confidence 2) [74D205FC] (AR v2) Copy OK

Track 3

Filename D:\EACRips\Wynton Marsalis - Wynton Marsalis (1997) [FLAC]\CD2\03 - Gypsy.wav

Peak level 82.1 % Extraction speed 3.9 X Track quality 100.0 % Test CRC 656B833E Copy CRC 656B833E Accurately ripped (confidence 2) [42AAADC8] (AR v2) Copy OK

Track 4

Filename D:\EACRips\Wynton Marsalis - Wynton Marsalis (1997) [FLAC]\CD2\04 - Moanin'.wav

Peak level 99.9 % Extraction speed 4.2 X Track quality 99.9 % Test CRC 46A1F677 Copy CRC 46A1F677 Accurately ripped (confidence 2) [DA7588A5] (AR v2) Copy OK

Track 5

Filename D:\EACRips\Wynton Marsalis - Wynton Marsalis (1997) [FLAC]\CD2\05 - Soulful Mr. Timmons.wav

Peak level 77.1 % Extraction speed 5.0 X Track quality 100.0 % Test CRC 6DFF4846 Copy CRC 6DFF4846 Accurately ripped (confidence 2) [B2B60261] (AR v2) Copy OK

Track 6

Filename D:\EACRips\Wynton Marsalis - Wynton Marsalis (1997) [FLAC]\CD2\06 - My Ideal.wav

Peak level 94.7 % Extraction speed 4.7 X Track quality 99.9 % Test CRC 8DEF2756 Copy CRC 8DEF2756 Accurately ripped (confidence 2) [33EE25C4] (AR v2) Copy OK

Track 7

Filename D:\EACRips\Wynton Marsalis - Wynton Marsalis (1997) [FLAC]\CD2\07 - Free For All.wav

Peak level 100.0 % Extraction speed 5.5 X Track quality 100.0 % Test CRC EDB1BE9C Copy CRC EDB1BE9C Accurately ripped (confidence 2) [3DFA5C4D] (AR v2) Copy OK

All tracks accurately ripped

No errors occurred

End of status report

==== Log checksum 1803B7F846C556855608503EDACC08E6E03EE9C82FE32FF11D3104D51BB4B2EE ====
 
REM GENRE JazzREM DATE 1997REM DISCID 760C7507REM COMMENT "ExactAudioCopy v1.0b3"PERFORMER "Wynton Marsalis"TITLE "Wynton Marsalis, CD2"FILE "01 - Jodi.wav" WAVE TRACK 01 AUDIO TITLE "Jodi" PERFORMER "Wynton Marsalis" INDEX 01 00:00:00FILE "02 - Wheel Within A Wheel.wav" WAVE TRACK 02 AUDIO TITLE "Wheel Within A Wheel" PERFORMER "Wynton Marsalis" INDEX 01 00:00:00FILE "03 - Gypsy.wav" WAVE TRACK 03 AUDIO TITLE "Gypsy" PERFORMER "Wynton Marsalis" INDEX 01 00:00:00FILE "04 - Moanin'.wav" WAVE TRACK 04 AUDIO TITLE "Moanin'" PERFORMER "Wynton Marsalis" INDEX 01 00:00:00FILE "05 - Soulful Mr. Timmons.wav" WAVE TRACK 05 AUDIO TITLE "Soulful Mr. Timmons" PERFORMER "Wynton Marsalis" INDEX 01 00:00:00FILE "06 - My Ideal.wav" WAVE TRACK 06 AUDIO TITLE "My Ideal" PERFORMER "Wynton Marsalis" INDEX 01 00:00:00FILE "07 - Free For All.wav" WAVE TRACK 07 AUDIO TITLE "Free For All" PERFORMER "Wynton Marsalis" INDEX 01 00:00:00
Wynton Marsalis (Trumpet),
Bobby Watson (Sax (Alto)
Bill Pierce (Saxophone)
Jimmy Williams (Piano)
Ellis Marsalis (Piano)
Charles Fambrough (Bass)
Art Blakey (Drums)


Трекер:  [ 29-Янв-2012 16:41 ]

  

Скачать .torrent

Размер .torrent файла 15 KB


Размер: 666 MB
Хэш (hash) релиза: 788bcd9c60876fce026f29485844ef895a672eeb

Еще никто не оставлял запись к записи скачать торрент Wynton Marsalis - Dejavu Retro Gold Collection . Будь первым!

!Обратная связь