Скачать через торрент музыку Rosario Giuliani - Mr.Dodo - 2002, FLAC бесплатно без регистрации torrent

Если у вас наблюдаются проблемы со скриншотами, переходом по ссылками, скачиванием торрентов - проблемы в блокировщике рекламы AdBlock. #хорошегоДня!


Статистика раздачи
Размер:  400 MB   |    Зарегистрирован:  5 лет 8 месяцев   |    .torrent скачан:  30 раз   |   
Раздают:  1  
   
Загрузка...
 
Автор Сообщение

Umakiro

avatar Umakiro


Rosario Giuliani - Mr.Dodo

Жанр: Post-Bop
Страна-производитель диска: France
Год издания диска: 2002
Издатель (лейбл): Dreyfus
Номер по каталогу: FDM 36636-2
Страна: Terracina, Itlay
Аудиокодек: FLAC (*.flac)
Тип рипа: image+.cue
Битрейт аудио: lossless
Продолжительность: 01:00:27
Источник (релизер): scalamus
Наличие сканов в содержимом раздачи: да
01. Mr Dodo [05:35]
02. September [05:11]
03. Home [05:20]
04. By Night For Ever [05:54]
05. The Blessing [05:11]
06. Francy's Song [05:50]
07. Sortie [03:39]
08. The Cover [06:30]
09. Monsieur F.D. [05:20]
10. Mimi [04:44]
11. From The Ashes [07:08]
 
EAC extraction logfile from 22. May 2006, 20:04 for CDRosario Giuliani / Mr Dodo

Used drive : PLEXTOR DVDR PX-755A Adapter: 2 ID: 0Read mode : Secure with NO C2, accurate stream, disable cacheRead offset correction : 30Overread into Lead-In and Lead-Out : No

Used output format : Internal WAV Routines 44.100 Hz; 16 Bit; Stereo

Other options : Fill up missing offset samples with silence : Yes Delete leading and trailing silent blocks : No Installed external ASPI interface

Range status and errorsSelected range Filename F:\Rip\Rosario Giuliani - Mr Dodo.wav

Peak level 100.0 % Range quality 100.0 % CRC D9B4F444 Copy OK

No errors occured

End of status report
 
REM GENRE JazzREM DATE 2002REM DISCID 9C0E2B0BREM COMMENT "ExactAudioCopy v0.95b3"PERFORMER "Rosario Giuliani"TITLE "Mr Dodo"FILE "Rosario Giuliani - Mr Dodo.flac" WAVE TRACK 01 AUDIO TITLE "Mr Dodo" PERFORMER "Rosario Giuliani" ISRC FR14F0200220 FLAGS DCP INDEX 01 00:00:00 TRACK 02 AUDIO TITLE "September" PERFORMER "Rosario Giuliani" ISRC FR14F0200230 FLAGS DCP INDEX 00 05:33:41 INDEX 01 05:35:51 TRACK 03 AUDIO TITLE "Home" PERFORMER "Rosario Giuliani" ISRC FR14F0200240 FLAGS DCP INDEX 00 10:45:70 INDEX 01 10:46:54 TRACK 04 AUDIO TITLE "By Night For Ever" PERFORMER "Rosario Giuliani" ISRC FR14F0200250 FLAGS DCP INDEX 00 16:07:13 INDEX 01 16:07:24 TRACK 05 AUDIO TITLE "The Blessing" PERFORMER "Rosario Giuliani" ISRC FR14F0200260 FLAGS DCP INDEX 00 22:01:36 INDEX 01 22:01:51 TRACK 06 AUDIO TITLE "Francy's Song" PERFORMER "Rosario Giuliani" ISRC FR14F0200270 FLAGS DCP INDEX 00 27:11:55 INDEX 01 27:12:65 TRACK 07 AUDIO TITLE "Sortie" PERFORMER "Rosario Giuliani" ISRC FR14F0200280 FLAGS DCP INDEX 00 33:03:42 INDEX 01 33:03:53 TRACK 08 AUDIO TITLE "The Cover" PERFORMER "Rosario Giuliani" ISRC FR14F0200290 FLAGS DCP INDEX 00 36:42:18 INDEX 01 36:43:44 TRACK 09 AUDIO TITLE "Monsieur F.D." PERFORMER "Rosario Giuliani" ISRC FR14F0200300 FLAGS DCP INDEX 00 43:13:18 INDEX 01 43:13:46 TRACK 10 AUDIO TITLE "Mimi" PERFORMER "Rosario Giuliani" ISRC FR14F0200310 FLAGS DCP INDEX 00 48:31:64 INDEX 01 48:34:00 TRACK 11 AUDIO TITLE "From The Ashes" PERFORMER "Rosario Giuliani" ISRC FR14F0200320 FLAGS DCP INDEX 00 53:18:51 INDEX 01 53:18:62
Rosario Giuliani (soprano & alto saxophone)
Pietro Lusso (piano)
Dario Rosciglione (bass)
Marcello Di Leonardo (drums)


Трекер:  [ 29-Янв-2012 16:40 ]

  

Скачать .torrent

Размер .torrent файла 16 KB


Размер: 400 MB
Хэш (hash) релиза: c689feadccee992fbfdc98a8c621b7d2095b6b34

Еще никто не оставлял запись к записи скачать торрент Rosario Giuliani - Mr.Dodo - 2002, FLAC . Будь первым!

!Обратная связь