Скачать через торрент музыку Ralph Peterson Trio featuring Geri Allen - Triangular - 1989, FLAC бесплатно без регистрации torrent

Если у вас наблюдаются проблемы со скриншотами, переходом по ссылками, скачиванием торрентов - проблемы в блокировщике рекламы AdBlock. #хорошегоДня!


Статистика раздачи
Размер:  238 MB   |    Зарегистрирован:  5 лет 8 месяцев   |    .torrent скачан:  29 раз   |   
Раздают:  1  
   
Загрузка...
 
Автор Сообщение

Umakiro

avatar Umakiro


Ralph Peterson Trio featuring Geri Allen / Triangular

Жанр: Hard Bop, Post-Bop
Страна-производитель диска: USA
Год издания диска: 1989
Издатель (лейбл): Blue Note
Номер по каталогу: CDP 7 92750 2
Страна: USA Pleasantville, NJ
Аудиокодек: FLAC (*.flac)
Тип рипа: tracks+.cue
Битрейт аудио: lossless
Продолжительность: 00:47:02
Источник (релизер): сеть
Наличие сканов в содержимом раздачи: да
Треклист:
01. Bemsha Swing [05:05]
02. Triangular [07:36]
03. Water Colors [05:15]
04. Princess [06:14]
05. Just You Just Me [05:57]
06. Move [04:37]
07. Splash [06:41]
08. Smoke Rings [05:34]
 
Exact Audio Copy V0.99 prebeta 5 from 4. May 2009

EAC extraction logfile from 25. October 2010, 7:48

Ralph Peterson / Triangular

Used drive : TSSTcorpCDDVDW SH-S203N Adapter: 0 ID: 2

Read mode : SecureUtilize accurate stream : YesDefeat audio cache : YesMake use of C2 pointers : No

Read offset correction : 6Overread into Lead-In and Lead-Out : NoFill up missing offset samples with silence : YesDelete leading and trailing silent blocks : NoNull samples used in CRC calculations : YesUsed interface : Installed external ASPI interfaceGap handling : Appended to previous track

Used output format : User Defined EncoderSelected bitrate : 768 kBit/sQuality : HighAdd ID3 tag : NoCommand line compressor : C:\Program Files\Exact Audio Copy\Flac\flac.exeAdditional command line options : -8 -V -T "ARTIST=%a" -T "TITLE=%t" -T "ALBUM=%g" -T "DATE=%y" -T "TRACKNUMBER=%n" -T "TOTALTRACKS=%x" -T "GENRE=%m" -T "ALBUMARTIST=%v" -T "ALBUM ARTIST=%v" -T "COMMENT=EAC V0.99 pb5, Secure Mode, Test & Copy, AccurateRip,

TOC of the extracted CD

Track | Start | Length | Start sector | End sector --------------------------------------------------------- 1 | 0:00.00 | 5:05.05 | 0 | 22879 2 | 5:05.05 | 7:37.67 | 22880 | 57221 3 | 12:42.72 | 5:16.45 | 57222 | 80966 4 | 17:59.42 | 6:17.20 | 80967 | 109261 5 | 24:16.62 | 5:57.55 | 109262 | 136091 6 | 30:14.42 | 4:38.08 | 136092 | 156949 7 | 34:52.50 | 6:42.47 | 156950 | 187146 8 | 41:35.22 | 5:34.05 | 187147 | 212201

Track 1

Filename J:\New Rips\Ralph Peterson - Triangular (1989) [FLAC] {Blue Note CDP 7 92750 2 rec 1988}\01 - Bemsha Swing.wav

Pre-gap length 0:00:02.00

Peak level 92.6 % Track quality 100.0 % Test CRC 0905E140 Copy CRC 0905E140 Track not present in AccurateRip database Copy OK

Track 2

Filename J:\New Rips\Ralph Peterson - Triangular (1989) [FLAC] {Blue Note CDP 7 92750 2 rec 1988}\02 - Triangular.wav

Peak level 66.3 % Track quality 99.9 % Test CRC 76F11114 Copy CRC 76F11114 Track not present in AccurateRip database Copy OK

Track 3

Filename J:\New Rips\Ralph Peterson - Triangular (1989) [FLAC] {Blue Note CDP 7 92750 2 rec 1988}\03 - Water Colors.wav

Pre-gap length 0:00:01.06

Peak level 30.6 % Track quality 100.0 % Test CRC 7B6AA7D1 Copy CRC 7B6AA7D1 Track not present in AccurateRip database Copy OK

Track 4

Filename J:\New Rips\Ralph Peterson - Triangular (1989) [FLAC] {Blue Note CDP 7 92750 2 rec 1988}\04 - Princess.wav

Pre-gap length 0:00:00.80

Peak level 78.3 % Track quality 100.0 % Test CRC AB2679A3 Copy CRC AB2679A3 Track not present in AccurateRip database Copy OK

Track 5

Filename J:\New Rips\Ralph Peterson - Triangular (1989) [FLAC] {Blue Note CDP 7 92750 2 rec 1988}\05 - Just You Just Me.wav

Pre-gap length 0:00:02.66

Peak level 71.7 % Track quality 100.0 % Test CRC 4D7ADDE5 Copy CRC 4D7ADDE5 Track not present in AccurateRip database Copy OK

Track 6

Filename J:\New Rips\Ralph Peterson - Triangular (1989) [FLAC] {Blue Note CDP 7 92750 2 rec 1988}\06 - Move.wav

Pre-gap length 0:00:00.56

Peak level 64.9 % Track quality 100.0 % Test CRC C7685777 Copy CRC C7685777 Track not present in AccurateRip database Copy OK

Track 7

Filename J:\New Rips\Ralph Peterson - Triangular (1989) [FLAC] {Blue Note CDP 7 92750 2 rec 1988}\07 - Splash.wav

Pre-gap length 0:00:00.84

Peak level 35.6 % Track quality 100.0 % Test CRC 92C93C98 Copy CRC 92C93C98 Track not present in AccurateRip database Copy OK

Track 8

Filename J:\New Rips\Ralph Peterson - Triangular (1989) [FLAC] {Blue Note CDP 7 92750 2 rec 1988}\08 - Smoke Rings.wav

Pre-gap length 0:00:01.22

Peak level 66.4 % Track quality 99.9 % Test CRC 050C0591 Copy CRC 050C0591 Track not present in AccurateRip database Copy OK

None of the tracks are present in the AccurateRip database

No errors occurred

End of status report
 
REM GENRE JazzREM DATE 1989REM DISCID 6E0B0D08REM COMMENT "ExactAudioCopy v0.99pb5"PERFORMER "Ralph Peterson"TITLE "Triangular"FILE "01 - Bemsha Swing.flac" WAVE TRACK 01 AUDIO TITLE "Bemsha Swing" PERFORMER "Ralph Peterson" INDEX 01 00:00:00FILE "02 - Triangular.flac" WAVE TRACK 02 AUDIO TITLE "Triangular" PERFORMER "Ralph Peterson" INDEX 01 00:00:00 TRACK 03 AUDIO TITLE "Water Colors" PERFORMER "Ralph Peterson" INDEX 00 07:36:62FILE "03 - Water Colors.flac" WAVE INDEX 01 00:00:00 TRACK 04 AUDIO TITLE "Princess" PERFORMER "Ralph Peterson" INDEX 00 05:15:60FILE "04 - Princess.flac" WAVE INDEX 01 00:00:00 TRACK 05 AUDIO TITLE "Just You Just Me" PERFORMER "Ralph Peterson" INDEX 00 06:14:45FILE "05 - Just You Just Me.flac" WAVE INDEX 01 00:00:00 TRACK 06 AUDIO TITLE "Move" PERFORMER "Ralph Peterson" INDEX 00 05:57:13FILE "06 - Move.flac" WAVE INDEX 01 00:00:00 TRACK 07 AUDIO TITLE "Splash" PERFORMER "Ralph Peterson" INDEX 00 04:37:20FILE "07 - Splash.flac" WAVE INDEX 01 00:00:00 TRACK 08 AUDIO TITLE "Smoke Rings" PERFORMER "Ralph Peterson" INDEX 00 06:41:30FILE "08 - Smoke Rings.flac" WAVE INDEX 01 00:00:00
Drums - Ralph Peterson, Jr.
Piano - Geri Allen
Bass - Essiet Okon Essiet
Bass - Philip Bowler


Трекер:  [ 29-Янв-2012 16:40 ]

  

Скачать .torrent

Размер .torrent файла 20 KB


Размер: 238 MB
Хэш (hash) релиза: 777ce85868e38c734936305be6dfc41694daf53d

Еще никто не оставлял запись к записи скачать торрент Ralph Peterson Trio featuring Geri Allen - Triangular - 1989, FLAC . Будь первым!

!Обратная связь