Скачать через торрент музыку The Incredible Jimmy Smith - Home Cookin - 1996, FLAC бесплатно без регистрации torrent

Если у вас наблюдаются проблемы со скриншотами, переходом по ссылками, скачиванием торрентов - проблемы в блокировщике рекламы AdBlock. #хорошегоДня!


Статистика раздачи
Размер:  450 MB   |    Зарегистрирован:  5 лет 8 месяцев   |    .torrent скачан:  32 раза   |   
Раздают:  1  
   
Загрузка...
 
Автор Сообщение

Umakiro

avatar Umakiro


The Incredible Jimmy Smith / Home Cookin'

Жанр: Hard Bop, Soul Jazz
Страна-производитель диска: Holland
Год издания диска: 1996
Издатель (лейбл): Blue Note
Номер по каталогу: 7243 8 53360 2 7
Страна: USA Norristown, PA
Аудиокодек: FLAC (*.flac)
Тип рипа: image+.cue
Битрейт аудио: lossless
Продолжительность: 01:10:02
Источник (релизер): itr
Наличие сканов в содержимом раздачи: да
Треклист:
01. See See Rider [06:34]
02. Sugar Hill [05:21]
03. I Got A Woman [03:54]
04. Messin' Around [05:56]
05. Gracie [05:53]
06. Come On Baby [06:50]
07. Motorin' Along [05:08]
08. Since I Fell For You [04:19]
09. Apostrophe [06:35]
10. Groanin' [08:10]
11. Motorin' Along (alt tk) [05:03]
12. Since I Fell For You (alt tk) [06:15]

Recording information: Van Gelder Studios, Englewood Cliffs, NJ (05/24/1958-06/16/1958).
 
Exact Audio Copy V0.99 prebeta 5 from 4. May 2009

EAC extraction logfile from 19. December 2011, 17:20

Jimmy Smith / Home Cookin'

Used drive : _NEC DVD_RW ND-3500AG Adapter: 0 ID: 0

Read mode : SecureUtilize accurate stream : YesDefeat audio cache : YesMake use of C2 pointers : No

Read offset correction : 48Overread into Lead-In and Lead-Out : NoFill up missing offset samples with silence : YesDelete leading and trailing silent blocks : NoNull samples used in CRC calculations : YesUsed interface : Native Win32 interface for Win NT & 2000

Used output format : User Defined EncoderSelected bitrate : 768 kBit/sQuality : HighAdd ID3 tag : NoCommand line compressor : C:\Program Files\Exact Audio Copy\FLAC\FLAC.EXEAdditional command line options : -6 -V -T "ARTIST=%a" -T "TITLE=%t" -T "ALBUM=%g" -T "DATE=%y" -T "TRACKNUMBER=%n" -T "GENRE=%m" -T "COMMENT=%e" %s -o %d

TOC of the extracted CD

Track | Start | Length | Start sector | End sector --------------------------------------------------------- 1 | 0:00.00 | 6:34.15 | 0 | 29564 2 | 6:34.15 | 5:21.32 | 29565 | 53671 3 | 11:55.47 | 3:54.43 | 53672 | 71264 4 | 15:50.15 | 5:56.57 | 71265 | 98021 5 | 21:46.72 | 5:53.25 | 98022 | 124521 6 | 27:40.22 | 6:50.23 | 124522 | 155294 7 | 34:30.45 | 5:08.37 | 155295 | 178431 8 | 39:39.07 | 4:19.10 | 178432 | 197866 9 | 43:58.17 | 6:35.00 | 197867 | 227491 10 | 50:33.17 | 8:10.03 | 227492 | 264244 11 | 58:43.20 | 5:03.05 | 264245 | 286974 12 | 63:46.25 | 6:15.60 | 286975 | 315159

Range status and errors

Selected range

Filename J:\eMusic\Rip\Jimmy Smith - Home Cookin'.wav

Peak level 99.2 % Range quality 100.0 % Copy CRC 5BBAC8AB Copy OK

No errors occurred

AccurateRip summary

Track 1 accurately ripped (confidence 10) [A8914D31]Track 2 accurately ripped (confidence 10) [A432AD61]Track 3 accurately ripped (confidence 9) [FCA70828]Track 4 accurately ripped (confidence 8) [8C5A5880]Track 5 accurately ripped (confidence 10) [23E819B3]Track 6 accurately ripped (confidence 9) [1248A54F]Track 7 accurately ripped (confidence 9) [59D9EDE3]Track 8 accurately ripped (confidence 10) [75035AD2]Track 9 accurately ripped (confidence 9) [96BEE929]Track 10 accurately ripped (confidence 10) [523E0351]Track 11 accurately ripped (confidence 10) [C3DA3ECE]Track 12 accurately ripped (confidence 9) [A020833E]

All tracks accurately ripped

End of status report
 
REM GENRE JazzREM DATE 1959REM DISCID A2106A0CREM COMMENT "ExactAudioCopy v0.99pb5"PERFORMER "Jimmy Smith"TITLE "Home Cookin'"FILE "Jimmy Smith - Home Cookin'.flac" WAVE TRACK 01 AUDIO TITLE "See See Rider" PERFORMER "Jimmy Smith" INDEX 01 00:00:00 TRACK 02 AUDIO TITLE "Sugar Hill" PERFORMER "Jimmy Smith" INDEX 00 06:33:02 INDEX 01 06:34:15 TRACK 03 AUDIO TITLE "I Got A Woman" PERFORMER "Jimmy Smith" INDEX 00 11:54:10 INDEX 01 11:55:47 TRACK 04 AUDIO TITLE "Messin' Around" PERFORMER "Jimmy Smith" INDEX 00 15:48:20 INDEX 01 15:50:15 TRACK 05 AUDIO TITLE "Gracie" PERFORMER "Jimmy Smith" INDEX 00 21:45:15 INDEX 01 21:46:72 TRACK 06 AUDIO TITLE "Come On Baby" PERFORMER "Jimmy Smith" INDEX 00 27:38:40 INDEX 01 27:40:22 TRACK 07 AUDIO TITLE "Motorin' Along" PERFORMER "Jimmy Smith" INDEX 00 34:28:70 INDEX 01 34:30:45 TRACK 08 AUDIO TITLE "Since I Fell For You" PERFORMER "Jimmy Smith" INDEX 00 39:36:35 INDEX 01 39:39:07 TRACK 09 AUDIO TITLE "Apostrophe" PERFORMER "Jimmy Smith" INDEX 00 43:56:35 INDEX 01 43:58:17 TRACK 10 AUDIO TITLE "Groanin'" PERFORMER "Jimmy Smith" INDEX 00 50:31:25 INDEX 01 50:33:17 TRACK 11 AUDIO TITLE "Motorin' Along (alt tk)" PERFORMER "Jimmy Smith" INDEX 00 58:40:72 INDEX 01 58:43:20 TRACK 12 AUDIO TITLE "Since I Fell For You (alt tk)" PERFORMER "Jimmy Smith" INDEX 00 63:43:62 INDEX 01 63:46:25
 
-----------------------

DON'T MODIFY THIS FILE

-----------------------

PERFORMER: auCDtect Task Manager, ver. 1.5.1RC6 build 1.5.1.7Copyright (c) 2008-2010 y-soft. All rights reservedhttp://y-soft.org

ANALYZER: auCDtect: CD records authenticity detector, version 0.8.2Copyright (c) 2004 Oleg Berngardt. All rights reserved.Copyright (c) 2004 Alexander Djourik. All rights reserved.

FILE: Jimmy Smith - Home Cookin'.flac Size: 465711845 Hash: BAE3AE48B9B4ACEE71EF9BA52F94991D Accuracy: -m0 Conclusion: CDDA 99% Signature: 7AC8032F5994F25EC2652D825C77074D66A55E32
Jimmy Smith (organ);
Jimmy Smith ; Kenny Burrell (guitar);
Percy France (tenor saxophone);
Donald Bailey (drums).


Трекер:  [ 29-Янв-2012 15:09 ]

  

Скачать .torrent

Размер .torrent файла 18 KB


Размер: 450 MB
Хэш (hash) релиза: c69398df15a74bbacfd65487a8a93853da814760

Еще никто не оставлял запись к записи скачать торрент The Incredible Jimmy Smith - Home Cookin - 1996, FLAC . Будь первым!

!Обратная связь