Скачать через торрент музыку Christian McBride - Conversations with Christian - 2011, FLAC бесплатно без регистрации torrent

Если у вас наблюдаются проблемы со скриншотами, переходом по ссылками, скачиванием торрентов - проблемы в блокировщике рекламы AdBlock. #хорошегоДня!


Статистика раздачи
Размер:  319 MB   |    Зарегистрирован:  5 лет 8 месяцев   |    .torrent скачан:  18 раз   |   
Раздают:  1  
   
Загрузка...
 
Автор Сообщение

Umakiro

avatar Umakiro


Christian McBride - Conversations with Christian

Жанр: Post-Bop, Straight-Ahead Jazz
Год издания диска: 2011
Издатель (лейбл): Mack Avenue Records
Номер по каталогу: MAC 1050
Страна: USA Philadelphia, PA
Аудиокодек: FLAC (*.flac)
Тип рипа: tracks+.cue
Битрейт аудио: lossless
Продолжительность: 01:16:21
Источник (релизер): fcom
Наличие сканов в содержимом раздачи: нет
01. Afrika (feat. Angelique Kidjo) [04:21]
02. Fat Bach and Greens (feat. Regina Carter) [04:40]
03. Consider Me Gone (feat. Sting) [04:19]
04. Guajeo Y Tumbao (feat. Eddie Palmieri) [06:18]
05. Baubles, Bangles and Beads (feat. Roy Hargrove) [05:21]
06. Spiritual (feat. Dr. Billy Taylor) [07:06]
07. It's Your Thing (feat. Dee Dee Bridgewater) [05:08]
08. Alone Together (feat. Hank Jones) [05:31]
09. McDukey Blues (feat. George Duke) [05:33]
10. Tango Improvisation #1 (feat. Chick Corea) [09:04]
11. Sister Rosa (feat. Russell Malone) [06:39]
12. Shake 'n Blake (feat. Ron Blake) [05:36]
13. Chitilins and Gelitefish (feat. Gina Gershon) [06:39]
 
Exact Audio Copy V0.99 prebeta 5 from 4. May 2009

EAC extraction logfile from 19. December 2011, 16:21

Christian McBride / Conversations with Christian

Used drive : HL-DT-STBDDVDRW CH08LS10 Adapter: 2 ID: 0

Read mode : SecureUtilize accurate stream : YesDefeat audio cache : YesMake use of C2 pointers : No

Read offset correction : 667Overread into Lead-In and Lead-Out : NoFill up missing offset samples with silence : YesDelete leading and trailing silent blocks : NoNull samples used in CRC calculations : YesUsed interface : Installed external ASPI interfaceGap handling : Appended to previous track

Used output format : User Defined EncoderSelected bitrate : 128 kBit/sQuality : HighAdd ID3 tag : NoCommand line compressor : C:\Archivos de programa\Exact Audio Copy\Flac\flac.exeAdditional command line options : -8 -V -T "ARTIST=%a" -T "TITLE=%t" -T "ALBUM=%g" -T "DATE=%y" -T "TRACKNUMBER=%n" -T "TOTALTRACKS=%x" -T "GENRE=%m" -T "ALBUM ARTIST=%v" -T "ALBUMARTIST=%v" -T "COMMENT=EAC V0.99 pb5, Secure Mode, Test&Copy, AccurateRip, FL

TOC of the extracted CD

Track | Start | Length | Start sector | End sector --------------------------------------------------------- 1 | 0:00.00 | 4:21.30 | 0 | 19604 2 | 4:21.30 | 4:40.53 | 19605 | 40657 3 | 9:02.08 | 4:19.21 | 40658 | 60103 4 | 13:21.29 | 6:18.27 | 60104 | 88480 5 | 19:39.56 | 5:21.69 | 88481 | 112624 6 | 25:01.50 | 7:07.38 | 112625 | 144687 7 | 32:09.13 | 5:09.33 | 144688 | 167895 8 | 37:18.46 | 5:32.15 | 167896 | 192810 9 | 42:50.61 | 5:34.72 | 192811 | 217932 10 | 48:25.58 | 9:06.01 | 217933 | 258883 11 | 57:31.59 | 6:39.09 | 258884 | 288817 12 | 64:10.68 | 5:36.59 | 288818 | 314076 13 | 69:47.52 | 6:39.24 | 314077 | 344025

Track 1

Filename C:\users\fcom\Escritorio\[001] Directio de EAC\01 - Afrika (feat. Angelique Kidjo).wav

Pre-gap length 0:00:02.00

Peak level 96.7 % Track quality 100.0 % Test CRC B0CB07E3 Copy CRC B0CB07E3 Cannot be verified as accurate (confidence 1) [B6F44101], AccurateRip returned [D160FF17] Copy OK

Track 2

Filename C:\users\fcom\Escritorio\[001] Directio de EAC\02 - Fat Bach and Greens (feat. Regina Carter).wav

Pre-gap length 0:00:00.08

Peak level 94.4 % Track quality 100.0 % Test CRC 69E6C7D6 Copy CRC 69E6C7D6 Track not present in AccurateRip database Copy OK

Track 3

Filename C:\users\fcom\Escritorio\[001] Directio de EAC\03 - Consider Me Gone (feat. Sting).wav

Peak level 99.8 % Track quality 100.0 % Test CRC 805FB00A Copy CRC 805FB00A Cannot be verified as accurate (confidence 1) [0B3B4822], AccurateRip returned [A4F071F4] Copy OK

Track 4

Filename C:\users\fcom\Escritorio\[001] Directio de EAC\04 - Guajeo Y Tumbao (feat. Eddie Palmieri).wav

Peak level 99.8 % Track quality 100.0 % Test CRC D4D1E989 Copy CRC D4D1E989 Cannot be verified as accurate (confidence 1) [A816020A], AccurateRip returned [B20E15D5] Copy OK

Track 5

Filename C:\users\fcom\Escritorio\[001] Directio de EAC\05 - Baubles, Bangles and Beads (feat. Roy Hargrove).wav

Pre-gap length 0:00:00.14

Peak level 99.9 % Track quality 100.0 % Test CRC D3CFB83B Copy CRC D3CFB83B Cannot be verified as accurate (confidence 1) [64F8AB53], AccurateRip returned [4636938B] Copy OK

Track 6

Filename C:\users\fcom\Escritorio\[001] Directio de EAC\06 - Spiritual (feat. Dr. Billy Taylor).wav

Pre-gap length 0:00:00.25

Peak level 95.1 % Track quality 100.0 % Test CRC 49A0FCA1 Copy CRC 49A0FCA1 Track not present in AccurateRip database Copy OK

Track 7

Filename C:\users\fcom\Escritorio\[001] Directio de EAC\07 - It's Your Thing (feat. Dee Dee Bridgewater).wav

Pre-gap length 0:00:00.57

Peak level 86.5 % Track quality 100.0 % Test CRC 6E23F062 Copy CRC 6E23F062 Cannot be verified as accurate (confidence 1) [54ACE645], AccurateRip returned [7DB16C73] Copy OK

Track 8

Filename C:\users\fcom\Escritorio\[001] Directio de EAC\08 - Alone Together (feat. Hank Jones).wav

Pre-gap length 0:00:00.97

Peak level 96.8 % Track quality 100.0 % Test CRC 4E7823DC Copy CRC 4E7823DC Cannot be verified as accurate (confidence 1) [FBBCD602], AccurateRip returned [1E1ED52D] Copy OK

Track 9

Filename C:\users\fcom\Escritorio\[001] Directio de EAC\09 - McDukey Blues (feat. George Duke).wav

Pre-gap length 0:00:00.58

Peak level 96.9 % Track quality 100.0 % Test CRC 111D7717 Copy CRC 111D7717 Cannot be verified as accurate (confidence 1) [3BC04709], AccurateRip returned [B17F47BE] Copy OK

Track 10

Filename C:\users\fcom\Escritorio\[001] Directio de EAC\10 - Tango Improvisation #1 (feat. Chick Corea).wav

Pre-gap length 0:00:01.41

Peak level 99.2 % Track quality 100.0 % Test CRC 88B82D41 Copy CRC 88B82D41 Track not present in AccurateRip database Copy OK

Track 11

Filename C:\users\fcom\Escritorio\[001] Directio de EAC\11 - Sister Rosa (feat. Russell Malone).wav

Pre-gap length 0:00:01.49

Peak level 97.9 % Track quality 99.9 % Test CRC 1CDC8CF5 Copy CRC 1CDC8CF5 Cannot be verified as accurate (confidence 1) [5BDA93E5], AccurateRip returned [069B264B] Copy OK

Track 12

Filename C:\users\fcom\Escritorio\[001] Directio de EAC\12 - Shake 'n Blake (feat. Ron Blake).wav

Peak level 99.8 % Track quality 100.0 % Test CRC 7A626B88 Copy CRC 7A626B88 Cannot be verified as accurate (confidence 1) [F5C60668], AccurateRip returned [EC36A62D] Copy OK

Track 13

Filename C:\users\fcom\Escritorio\[001] Directio de EAC\13 - Chitilins and Gelitefish (feat. Gina Gershon).wav

Pre-gap length 0:00:00.24

Peak level 99.3 % Track quality 100.0 % Test CRC ACA086D8 Copy CRC ACA086D8 Cannot be verified as accurate (confidence 1) [7A0A201A], AccurateRip returned [0F87DEBA] Copy OK

10 track(s) could not be verified as accurate 3 track(s) not present in the AccurateRip database

No tracks could be verified as accurateYou may have a different pressing from the one(s) in the database

No errors occurred

End of status report
 
REM GENRE "Mack Avenue"REM DATE 2011REM DISCID A811EB0DREM COMMENT "ExactAudioCopy v0.99pb5"PERFORMER "Christian McBride"TITLE "Conversations with Christian"FILE "01 - Afrika (feat. Angelique Kidjo).wav" WAVE TRACK 01 AUDIO TITLE "Afrika (feat. Angelique Kidjo)" PERFORMER "Christian McBride" INDEX 01 00:00:00 TRACK 02 AUDIO TITLE "Fat Bach and Greens (feat. Regina Carter)" PERFORMER "Christian McBride" INDEX 00 04:21:24FILE "02 - Fat Bach and Greens (feat. Regina Carter).wav" WAVE INDEX 01 00:00:00FILE "03 - Consider Me Gone (feat. Sting).wav" WAVE TRACK 03 AUDIO TITLE "Consider Me Gone (feat. Sting)" PERFORMER "Christian McBride" INDEX 01 00:00:00FILE "04 - Guajeo Y Tumbao (feat. Eddie Palmieri).wav" WAVE TRACK 04 AUDIO TITLE "Guajeo Y Tumbao (feat. Eddie Palmieri)" PERFORMER "Christian McBride" INDEX 01 00:00:00 TRACK 05 AUDIO TITLE "Baubles, Bangles and Beads (feat. Roy Hargrove)" PERFORMER "Christian McBride" INDEX 00 06:18:16FILE "05 - Baubles, Bangles and Beads (feat. Roy Hargrove).wav" WAVE INDEX 01 00:00:00 TRACK 06 AUDIO TITLE "Spiritual (feat. Dr. Billy Taylor)" PERFORMER "Christian McBride" INDEX 00 05:21:50FILE "06 - Spiritual (feat. Dr. Billy Taylor).wav" WAVE INDEX 01 00:00:00 TRACK 07 AUDIO TITLE "It's Your Thing (feat. Dee Dee Bridgewater)" PERFORMER "Christian McBride" INDEX 00 07:06:70FILE "07 - It's Your Thing (feat. Dee Dee Bridgewater).wav" WAVE INDEX 01 00:00:00 TRACK 08 AUDIO TITLE "Alone Together (feat. Hank Jones)" PERFORMER "Christian McBride" INDEX 00 05:08:35FILE "08 - Alone Together (feat. Hank Jones).wav" WAVE INDEX 01 00:00:00 TRACK 09 AUDIO TITLE "McDukey Blues (feat. George Duke)" PERFORMER "Christian McBride" INDEX 00 05:31:46FILE "09 - McDukey Blues (feat. George Duke).wav" WAVE INDEX 01 00:00:00 TRACK 10 AUDIO TITLE "Tango Improvisation #1 (feat. Chick Corea)" PERFORMER "Christian McBride" INDEX 00 05:33:41FILE "10 - Tango Improvisation #1 (feat. Chick Corea).wav" WAVE INDEX 01 00:00:00 TRACK 11 AUDIO TITLE "Sister Rosa (feat. Russell Malone)" PERFORMER "Christian McBride" INDEX 00 09:04:39FILE "11 - Sister Rosa (feat. Russell Malone).wav" WAVE INDEX 01 00:00:00FILE "12 - Shake 'n Blake (feat. Ron Blake).wav" WAVE TRACK 12 AUDIO TITLE "Shake 'n Blake (feat. Ron Blake)" PERFORMER "Christian McBride" INDEX 01 00:00:00 TRACK 13 AUDIO TITLE "Chitilins and Gelitefish (feat. Gina Gershon)" PERFORMER "Christian McBride" INDEX 00 05:36:41FILE "13 - Chitilins and Gelitefish (feat. Gina Gershon).wav" WAVE INDEX 01 00:00:00
 
-----------------------

DON'T MODIFY THIS FILE

-----------------------

PERFORMER: auCDtect Task Manager, ver. 1.5.1RC6 build 1.5.1.7Copyright (c) 2008-2010 y-soft. All rights reservedhttp://y-soft.org

ANALYZER: auCDtect: CD records authenticity detector, version 0.8.2Copyright (c) 2004 Oleg Berngardt. All rights reserved.Copyright (c) 2004 Alexander Djourik. All rights reserved.

FILE: 13 - Chitilins and Gelitefish (feat. Gina Gershon).flac Size: 31959724 Hash: 7586E55DCF88961C55B35C8FC92C1546 Accuracy: -m0 Conclusion: CDDA 100% Signature: 692938F8681CE7C24780F9A03C9070095513E664FILE: 12 - Shake 'n Blake (feat. Ron Blake).flac Size: 27194396 Hash: E8E2C1A262BC5FF97DAE6E1AC88B5388 Accuracy: -m0 Conclusion: CDDA 100% Signature: E57BB3AEEE03511CF6C21E1BF4B358B022C094B2FILE: 11 - Sister Rosa (feat. Russell Malone).flac Size: 27101615 Hash: FA599AF4CA161A59C8BB58A28F419DC5 Accuracy: -m0 Conclusion: CDDA 100% Signature: 9705C17DB3364DC3E8990F201B90C91E97CF0CCEFILE: 10 - Tango Improvisation #1 (feat. Chick Corea).flac Size: 34841651 Hash: 65042F2E51D9ABEEC57576BB9555C1EC Accuracy: -m0 Conclusion: CDDA 100% Signature: 2AAEB10E67C5DE4410CBECFD81894FE203CA15BAFILE: 09 - McDukey Blues (feat. George Duke).flac Size: 26021972 Hash: 7A4F2E185887DA39FF3851220EFC9A4A Accuracy: -m0 Conclusion: CDDA 100% Signature: 18F0DA90E848A50F853EDB037B79193FBDFBA630FILE: 08 - Alone Together (feat. Hank Jones).flac Size: 21500195 Hash: EE89EF20117DDD38D7F73D36352D4A1C Accuracy: -m0 Conclusion: CDDA 99% Signature: 5F207C48CD9343BEC2BFE91E27F0C78F34BD1AF3FILE: 07 - It's Your Thing (feat. Dee Dee Bridgewater).flac Size: 26883059 Hash: 637D51A46A5BE0210123DD079DB78764 Accuracy: -m0 Conclusion: CDDA 100% Signature: 34E6EE5F18A1D840A61FED2C1339F39BE3AC980BFILE: 06 - Spiritual (feat. Dr. Billy Taylor).flac Size: 28455582 Hash: 5C2805B565784C941BF2CE5B205F98A0 Accuracy: -m0 Conclusion: CDDA 100% Signature: 0A532FC9592E0E658097AB8D84723BF22F1B8440FILE: 05 - Baubles, Bangles and Beads (feat. Roy Hargrove).flac Size: 19524246 Hash: C8527F5E9F30802C9717AF8E1FFFB6BC Accuracy: -m0 Conclusion: CDDA 100% Signature: B0AF95468FF5779B58FBF76FA5E8ED01F7B398F4FILE: 04 - Guajeo Y Tumbao (feat. Eddie Palmieri).flac Size: 28235758 Hash: 7B25D5743C582A81CDB2150F6AA31D1F Accuracy: -m0 Conclusion: CDDA 100% Signature: A2F8981212B08232BDC09177517B35A37C3EF0F4FILE: 03 - Consider Me Gone (feat. Sting).flac Size: 19954157 Hash: 33E2DBEE8EA69A0211E4F0940BE98130 Accuracy: -m0 Conclusion: CDDA 100% Signature: D74B629E1AB178EEE6BC6DA5E92841705B9B0391FILE: 02 - Fat Bach and Greens (feat. Regina Carter).flac Size: 22658821 Hash: C45230493F47ABB6E26435FA789A6126 Accuracy: -m0 Conclusion: CDDA 100% Signature: FC991323B396D4D14CDEAA403664130B1F79769AFILE: 01 - Afrika (feat. Angelique Kidjo).flac Size: 20343468 Hash: 78317815FAF4715A490A087FA007BF0E Accuracy: -m0 Conclusion: CDDA 100% Signature: 0248AE55A95CAF5A433B56E7BEDDBC07B47C3900
Christian McBride: bass;
Angelique Kidjo: vocals (1);
Regina Carter: violin (2);
Sting: vocals (3), guitar (3);
Eddie Palmieri: piano (4);
Roy Hargrove: trumpet (5);
Dr. Billy Taylor: piano (6);
Dee Dee Bridgewater: vocals (7);
Hank Jones: piano (8);
George Duke: piano (9);
Chick Corea: piano (10);
Russell Malone: guitar (11);
Ron Blake: tenor saxophone (12);
Gina Gershon: vocals (13)


Трекер:  [ 29-Янв-2012 15:09 ]

  

Скачать .torrent

Размер .torrent файла 14 KB


Размер: 319 MB
Хэш (hash) релиза: e9d6de4008f36fa8de2d8673c5fe73a8ec37c451

Еще никто не оставлял запись к записи скачать торрент Christian McBride - Conversations with Christian - 2011, FLAC . Будь первым!

!Обратная связь