Скачать через торрент музыку Rez Abbasi’s Invocation - Suno Suno - 2011, FLAC бесплатно без регистрации torrent

Если у вас наблюдаются проблемы со скриншотами, переходом по ссылками, скачиванием торрентов - проблемы в блокировщике рекламы AdBlock. #хорошегоДня!


Статистика раздачи
Размер:  396 MB   |    Зарегистрирован:  5 лет 8 месяцев   |    .torrent скачан:  22 раза   |   
Раздают:  1  
   
Загрузка...
 
Автор Сообщение

Umakiro

avatar Umakiro


Rez Abbasi’s Invocation / Suno Suno

Жанр: Post-Bop, Modern Jazz
Год издания диска: 2011
Издатель (лейбл): enjarecords
Номер по каталогу: ENJ-9575 2
Страна: Karachi, Pakistan
Аудиокодек: FLAC (*.flac)
Тип рипа: tracks+.cue
Битрейт аудио: lossless
Продолжительность: 01:04:03
Источник (релизер): Lame
Наличие сканов в содержимом раздачи: нет
Треклист:
01. Thanks for Giving [13:06]
02. Onus on Us [11:14]
03. Monuments (Intro) [01:43]
04. Monuments [06:56]
05. Nusrat [09:40]
06. Oversea [09:55]
07. Part of One [11:26]
 
Exact Audio Copy V1.0 beta 3 from 29. August 2011

EAC extraction logfile from 20. December 2011, 20:50

Rez Abbasi's Invocation / Suno Suno

Used drive : SlimtypeDVD A DS8A4S Adapter: 0 ID: 1

Read mode : SecureUtilize accurate stream : YesDefeat audio cache : YesMake use of C2 pointers : No

Read offset correction : 6Overread into Lead-In and Lead-Out : NoFill up missing offset samples with silence : YesDelete leading and trailing silent blocks : NoNull samples used in CRC calculations : YesUsed interface : Native Win32 interface for Win NT & 2000Gap handling : Appended to previous track

Used output format : User Defined EncoderSelected bitrate : 1024 kBit/sQuality : HighAdd ID3 tag : NoCommand line compressor : C:\Program Files (x86)\Exact Audio Copy\Flac\flac.exeAdditional command line options : -8 -V -T "ARTIST=%artist%" -T "TITLE=%title%" -T "ALBUM=%albumtitle%" -T "DATE=%year%" -T "TRACKNUMBER=%tracknr%" -T "GENRE=%genre%" -T "PERFORMER=%albuminterpret%" -T "COMPOSER=%composer%" %haslyrics%--tag-from-file=LYRICS="%lyricsfile%"%haslyrics% -T "ALBUMARTIST=%albumartist%" -T "DISCNUMBER=%cdnumber%" -T "TOTALDISCS=%totalcds%" -T "TOTALTRACKS=%numtracks%" -T "COMMENT=%comment%" %source% -o %dest%

TOC of the extracted CD

Track | Start | Length | Start sector | End sector --------------------------------------------------------- 1 | 0:00.00 | 13:09.44 | 0 | 59218 2 | 13:09.44 | 11:15.39 | 59219 | 109882 3 | 24:25.08 | 1:43.71 | 109883 | 117678 4 | 26:09.04 | 6:59.26 | 117679 | 149129 5 | 33:08.30 | 9:43.55 | 149130 | 192909 6 | 42:52.10 | 9:57.35 | 192910 | 237719 7 | 52:49.45 | 11:26.05 | 237720 | 289174

Track 1

Filename C:\EAC Rips\Rez Abbasi's Invocation - Suno Suno (2011) [Flac]\01 - Thanks for Giving.wav

Pre-gap length 0:00:02.00

Peak level 96.6 % Extraction speed 1.3 X Track quality 100.0 % Test CRC 3A8E20A9 Copy CRC 3A8E20A9 Track not present in AccurateRip database Copy OK

Track 2

Filename C:\EAC Rips\Rez Abbasi's Invocation - Suno Suno (2011) [Flac]\02 - Onus on Us.wav

Pre-gap length 0:00:03.00

Peak level 96.6 % Extraction speed 1.6 X Track quality 100.0 % Test CRC 8D4E7C8F Copy CRC 8D4E7C8F Track not present in AccurateRip database Copy OK

Track 3

Filename C:\EAC Rips\Rez Abbasi's Invocation - Suno Suno (2011) [Flac]\03 - Monuments (Intro).wav

Pre-gap length 0:00:01.37

Peak level 96.6 % Extraction speed 1.3 X Track quality 100.0 % Test CRC 010CCE57 Copy CRC 010CCE57 Track not present in AccurateRip database Copy OK

Track 4

Filename C:\EAC Rips\Rez Abbasi's Invocation - Suno Suno (2011) [Flac]\04 - Monuments.wav

Pre-gap length 0:00:00.32

Peak level 96.6 % Extraction speed 1.8 X Track quality 100.0 % Test CRC B15CAD09 Copy CRC B15CAD09 Track not present in AccurateRip database Copy OK

Track 5

Filename C:\EAC Rips\Rez Abbasi's Invocation - Suno Suno (2011) [Flac]\05 - Nusrat.wav

Pre-gap length 0:00:02.41

Peak level 96.6 % Extraction speed 2.0 X Track quality 100.0 % Test CRC 18697FBA Copy CRC 18697FBA Track not present in AccurateRip database Copy OK

Track 6

Filename C:\EAC Rips\Rez Abbasi's Invocation - Suno Suno (2011) [Flac]\06 - Oversea.wav

Pre-gap length 0:00:03.00

Peak level 96.6 % Extraction speed 2.2 X Track quality 100.0 % Test CRC 6E9A1AC4 Copy CRC 6E9A1AC4 Track not present in AccurateRip database Copy OK

Track 7

Filename C:\EAC Rips\Rez Abbasi's Invocation - Suno Suno (2011) [Flac]\07 - Part of One.wav

Pre-gap length 0:00:02.00

Peak level 96.6 % Extraction speed 2.4 X Track quality 100.0 % Test CRC 492B515E Copy CRC 492B515E Track not present in AccurateRip database Copy OK

None of the tracks are present in the AccurateRip database

No errors occurred

End of status report

---- CUETools DB Plugin V2.1.3

[CTDB TOCID: CTtyIb8uzzVIknLPKak_Y9AmuWw-] disk not present in database, Submit result: CTtyIb8uzzVIknLPKak_Y9AmuWw- has been uploaded
 
REM GENRE "Enja Records"REM DATE 2011REM DISCID 640F0F07REM COMMENT "ExactAudioCopy v1.0b3"PERFORMER "Rez Abbasi's Invocation"TITLE "Suno Suno"FILE "01 - Thanks for Giving.wav" WAVE TRACK 01 AUDIO TITLE "Thanks for Giving" PERFORMER "Rez Abbasi's Invocation" INDEX 01 00:00:00 TRACK 02 AUDIO TITLE "Onus on Us" PERFORMER "Rez Abbasi's Invocation" INDEX 00 13:06:44FILE "02 - Onus on Us.wav" WAVE INDEX 01 00:00:00 TRACK 03 AUDIO TITLE "Monuments (Intro)" PERFORMER "Rez Abbasi's Invocation" INDEX 00 11:14:02FILE "03 - Monuments (Intro).wav" WAVE INDEX 01 00:00:00 TRACK 04 AUDIO TITLE "Monuments" PERFORMER "Rez Abbasi's Invocation" INDEX 00 01:43:39FILE "04 - Monuments.wav" WAVE INDEX 01 00:00:00 TRACK 05 AUDIO TITLE "Nusrat" PERFORMER "Rez Abbasi's Invocation" INDEX 00 06:56:60FILE "05 - Nusrat.wav" WAVE INDEX 01 00:00:00 TRACK 06 AUDIO TITLE "Oversea" PERFORMER "Rez Abbasi's Invocation" INDEX 00 09:40:55FILE "06 - Oversea.wav" WAVE INDEX 01 00:00:00 TRACK 07 AUDIO TITLE "Part of One" PERFORMER "Rez Abbasi's Invocation" INDEX 00 09:55:35FILE "07 - Part of One.wav" WAVE INDEX 01 00:00:00
Rez Abbasi - acoustic and electric guitar
Rudresh Mahanthappa - alto saxophone
Vijay Iyer - piano
Johannes Weidenmueller - bass
Dan Weiss - drums


Трекер:  [ 29-Янв-2012 15:08 ]

  

Скачать .torrent

Размер .torrent файла 16 KB


Размер: 396 MB
Хэш (hash) релиза: e3b609a5879451f92da8f1c1b740c6a65f2d1d8b

Еще никто не оставлял запись к записи скачать торрент Rez Abbasi’s Invocation - Suno Suno - 2011, FLAC . Будь первым!

!Обратная связь