Скачать через торрент музыку Vince Benedetti - Hardbop World Granada Calling - 2009, FLAC бесплатно без регистрации torrent

Если у вас наблюдаются проблемы со скриншотами, переходом по ссылками, скачиванием торрентов - проблемы в блокировщике рекламы AdBlock. #хорошегоДня!


Статистика раздачи
Размер:  313 MB   |    Зарегистрирован:  5 лет 8 месяцев   |    .torrent скачан:  28 раз   |   
Раздают:  1  
   
Загрузка...
 
Автор Сообщение

Umakiro

avatar Umakiro


Vince Benedetti / Hardbop World 'Granada Calling'

Жанр: Post-Bop, Straight-Ahead Jazz
Год издания диска: 2009
Издатель (лейбл): TCB
Номер по каталогу: 29802
Страна: Teaneck, NJ (USA)
Аудиокодек: FLAC (*.flac)
Тип рипа: image+.cue
Битрейт аудио: lossless
Продолжительность: 00:55:48
Источник (релизер): karelin
Наличие сканов в содержимом раздачи: нет
Треклист:
01. Showtime [03:49]
02. Mr. Walker [05:37]
03. Bayram [05:05]
04. Rouge [06:06]
05. Tranes Serenade [05:18]
06. Twin Cities [04:52]
07. Compassion [06:34]
08. My Gospel [07:25]
09. Dusty Junction [06:03]
10. Galaxy [04:55]
 
Exact Audio Copy V1.0 beta 1 from 15. November 2010

EAC extraction logfile from 20. December 2011, 18:05

Vince Benedetti - Hardbop World / Granada Calling

Used drive : ATAPI DVD A DH20A4P Adapter: 1 ID: 0

Read mode : SecureUtilize accurate stream : YesDefeat audio cache : YesMake use of C2 pointers : No

Read offset correction : 6Overread into Lead-In and Lead-Out : NoFill up missing offset samples with silence : YesDelete leading and trailing silent blocks : NoNull samples used in CRC calculations : YesUsed interface : Installed external ASPI interface

Used output format : User Defined EncoderSelected bitrate : 1024 kBit/sQuality : HighAdd ID3 tag : NoCommand line compressor : C:\Program Files\Exact Audio Copy\Flac\flac.exeAdditional command line options : -5 -V -T "ARTIST=%a" -T "TITLE=%t" -T "ALBUM=%g" -T "DATE=%y" -T "TRACKNUMBER=%n" -T "GENRE=%m" -T "COMMENT=[oStereo.ru]" %s

TOC of the extracted CD

Track | Start | Length | Start sector | End sector --------------------------------------------------------- 1 | 0:00.00 | 3:49.67 | 0 | 17241 2 | 3:49.67 | 5:37.53 | 17242 | 42569 3 | 9:27.45 | 5:05.00 | 42570 | 65444 4 | 14:32.45 | 6:06.40 | 65445 | 92934 5 | 20:39.10 | 5:18.43 | 92935 | 116827 6 | 25:57.53 | 4:52.05 | 116828 | 138732 7 | 30:49.58 | 6:34.35 | 138733 | 168317 8 | 37:24.18 | 7:25.07 | 168318 | 201699 9 | 44:49.25 | 6:03.08 | 201700 | 228932 10 | 50:52.33 | 4:55.56 | 228933 | 251113

Range status and errors

Selected range

Filename D:\Vince Benedetti - Hardbop World - 2008 - TCB.wav

Peak level 98.8 % Extraction speed 0.2 X Range quality 99.9 % Test CRC E7C1E3A8 Copy CRC E7C1E3A8 Copy OK

No errors occurred

AccurateRip summary

Track 1 not present in databaseTrack 2 not present in databaseTrack 3 not present in databaseTrack 4 not present in databaseTrack 5 not present in databaseTrack 6 not present in databaseTrack 7 not present in databaseTrack 8 not present in databaseTrack 9 not present in databaseTrack 10 not present in database

None of the tracks are present in the AccurateRip database

End of status report

==== Log checksum 40931C20A171DCC016D967AAC076390C5C0F38AD96AA39BBFACC5785BC1E7653 ====
 
REM GENRE JazzREM DATE 2008REM DISCID 860D140AREM COMMENT "ExactAudioCopy v1.0b1"PERFORMER "Vince Benedetti - Hardbop World"TITLE "Granada Calling"FILE "Vince Benedetti - Hardbop World - 2008 - TCB.flac" WAVE TRACK 01 AUDIO TITLE "01. Showtime" PERFORMER "Vince Benedetti - Hardbop World" INDEX 01 00:00:00 TRACK 02 AUDIO TITLE "02. Mr. Walker" PERFORMER "Vince Benedetti - Hardbop World" INDEX 01 03:49:67 TRACK 03 AUDIO TITLE "03. Bayram" PERFORMER "Vince Benedetti - Hardbop World" INDEX 01 09:27:45 TRACK 04 AUDIO TITLE "04. Rouge" PERFORMER "Vince Benedetti - Hardbop World" INDEX 01 14:32:45 TRACK 05 AUDIO TITLE "05. Tranes Serenade" PERFORMER "Vince Benedetti - Hardbop World" INDEX 01 20:39:10 TRACK 06 AUDIO TITLE "06. Twin Cities" PERFORMER "Vince Benedetti - Hardbop World" INDEX 01 25:57:53 TRACK 07 AUDIO TITLE "07. Compassion" PERFORMER "Vince Benedetti - Hardbop World" INDEX 01 30:49:58 TRACK 08 AUDIO TITLE "08. My Gospel" PERFORMER "Vince Benedetti - Hardbop World" INDEX 01 37:24:18 TRACK 09 AUDIO TITLE "09. Dusty Junction" PERFORMER "Vince Benedetti - Hardbop World" INDEX 01 44:49:25 TRACK 10 AUDIO TITLE "10. Galaxy" PERFORMER "Vince Benedetti - Hardbop World" INDEX 01 50:52:33
Vince Benedetti, piano;
Miguel Angel Romero, trumpet;
Antonio Gonzalez, tenorsax;
Guillermo Morente, basse;
Julio Pérez, drums


Трекер:  [ 29-Янв-2012 15:08 ]

  

Скачать .torrent

Размер .torrent файла 13 KB


Размер: 313 MB
Хэш (hash) релиза: ab051800940b41ebf1480559df9eda971a168f23

Еще никто не оставлял запись к записи скачать торрент Vince Benedetti - Hardbop World Granada Calling - 2009, FLAC . Будь первым!

!Обратная связь