Скачать через торрент музыку Lou Donaldson - Say It Loud! - бесплатно без регистрации torrent

Если у вас наблюдаются проблемы со скриншотами, переходом по ссылками, скачиванием торрентов - проблемы в блокировщике рекламы AdBlock. #хорошегоДня!


Статистика раздачи
Размер:  227 MB   |    Зарегистрирован:  5 лет 8 месяцев   |    .torrent скачан:  31 раз   |   
Раздают:  1  
   
Загрузка...
 
Автор Сообщение

Umakiro

avatar Umakiro


Lou Donaldson / Say It Loud!

Жанр: Soul Jazz
Страна-производитель диска: USA
Год издания диска: (1968) - 2005
Издатель (лейбл): Blue Note / Water Music Records
Номер по каталогу: 72438-74802--2-3 / 143
Страна: US Badin, NC
Аудиокодек: FLAC (*.flac)
Тип рипа: tracks+.cue
Битрейт аудио: lossless
Продолжительность: 00:36:33
Источник (релизер): сеть
Наличие сканов в содержимом раздачи: да
Треклист:
01. Say It Loud, I'm Black And I'm Proud [07:32]
02. Summertime [05:49]
03. Caravan [05:22]
04. Snake Bone [09:31]
05. Brother Soul [08:17]
 
Exact Audio Copy V1.0 beta 1 from 15. November 2010

EAC extraction logfile from 22. December 2011, 0:24

Lou Donaldson / Say It Loud

Used drive : TSSTcorpCDDVDW SH-S203N Adapter: 0 ID: 2

Read mode : SecureUtilize accurate stream : YesDefeat audio cache : YesMake use of C2 pointers : No

Read offset correction : 6Overread into Lead-In and Lead-Out : NoFill up missing offset samples with silence : YesDelete leading and trailing silent blocks : NoNull samples used in CRC calculations : YesUsed interface : Installed external ASPI interfaceGap handling : Appended to previous track

Used output format : User Defined EncoderSelected bitrate : 768 kBit/sQuality : HighAdd ID3 tag : NoCommand line compressor : C:\Program Files\Exact Audio Copy-NEW\Flac\flac.exeAdditional command line options : -8 -V -T "ARTIST=%a" -T "TITLE=%t" -T "ALBUM=%g" -T "DATE=%y" -T "TRACKNUMBER=%n" -T "TOTALTRACKS=%x" -T "GENRE=%m" -T "ALBUMARTIST=%v" -T "ALBUM ARTIST=%v" -T "COMMENT=EAC V1.01b1, Secure Mode, Test & Copy, AccurateRip, FL

TOC of the extracted CD

Track | Start | Length | Start sector | End sector --------------------------------------------------------- 1 | 0:00.00 | 7:32.10 | 0 | 33909 2 | 7:32.10 | 5:49.38 | 33910 | 60122 3 | 13:21.48 | 5:22.42 | 60123 | 84314 4 | 18:44.15 | 9:31.33 | 84315 | 127172 5 | 28:15.48 | 8:17.46 | 127173 | 164493

Track 1

Filename J:\New Rips\Lou Donaldson - Say It Loud (1968) [FLAC]\01 - Say It Loud I'm Black And I'm Proud.wav

Pre-gap length 0:00:02.00

Peak level 96.6 % Extraction speed 1.9 X Track quality 100.0 % Test CRC E355889F Copy CRC E355889F Track not present in AccurateRip database Copy OK

Track 2

Filename J:\New Rips\Lou Donaldson - Say It Loud (1968) [FLAC]\02 - Summertime.wav

Peak level 96.6 % Extraction speed 2.2 X Track quality 100.0 % Test CRC F34C81DD Copy CRC F34C81DD Track not present in AccurateRip database Copy OK

Track 3

Filename J:\New Rips\Lou Donaldson - Say It Loud (1968) [FLAC]\03 - Caravan.wav

Peak level 96.6 % Extraction speed 2.4 X Track quality 100.0 % Test CRC 7C846B32 Copy CRC 7C846B32 Track not present in AccurateRip database Copy OK

Track 4

Filename J:\New Rips\Lou Donaldson - Say It Loud (1968) [FLAC]\04 - Snake Bone.wav

Peak level 96.6 % Extraction speed 2.8 X Track quality 100.0 % Test CRC 83377C05 Copy CRC 83377C05 Track not present in AccurateRip database Copy OK

Track 5

Filename J:\New Rips\Lou Donaldson - Say It Loud (1968) [FLAC]\05 - Brother Soul.wav

Peak level 96.6 % Extraction speed 3.1 X Track quality 100.0 % Test CRC 0379F04E Copy CRC 0379F04E Track not present in AccurateRip database Copy OK

None of the tracks are present in the AccurateRip database

No errors occurred

End of status report

==== Log checksum 7CAB380A74152AF2ECC424AC52CCE8D246FB2D868E19FF22874E4CE9919712EC ====
 
REM GENRE JazzREM DATE 1968REM DISCID 3B089105REM COMMENT "ExactAudioCopy v1.0b1"PERFORMER "Lou Donaldson"TITLE "Say It Loud"FILE "01 - Say It Loud I'm Black And I'm Proud.flac" WAVE TRACK 01 AUDIO TITLE "Say It Loud I'm Black And I'm Proud" PERFORMER "Lou Donaldson" INDEX 01 00:00:00FILE "02 - Summertime.flac" WAVE TRACK 02 AUDIO TITLE "Summertime" PERFORMER "Lou Donaldson" INDEX 01 00:00:00FILE "03 - Caravan.flac" WAVE TRACK 03 AUDIO TITLE "Caravan" PERFORMER "Lou Donaldson" INDEX 01 00:00:00FILE "04 - Snake Bone.flac" WAVE TRACK 04 AUDIO TITLE "Snake Bone" PERFORMER "Lou Donaldson" INDEX 01 00:00:00FILE "05 - Brother Soul.flac" WAVE TRACK 05 AUDIO TITLE "Brother Soul" PERFORMER "Lou Donaldson" INDEX 01 00:00:00
Lou Donaldson (alto saxophone);
Jimmy Ponder (guitar);
Blue Mitchell (trumpet);
Charles Earland (organ);
Leo Morris (drums).


Трекер:  [ 29-Янв-2012 15:07 ]

  

Скачать .torrent

Размер .torrent файла 19 KB


Размер: 227 MB
Хэш (hash) релиза: 98abb5f95b58c8ce566228525bc5faf8fed4251d

Еще никто не оставлял запись к записи скачать торрент Lou Donaldson - Say It Loud! - . Будь первым!

!Обратная связь