Скачать через торрент музыку Freddie Roach - The Soul BookMocha Motion! - 1998, FLAC бесплатно без регистрации torrent

Если у вас наблюдаются проблемы со скриншотами, переходом по ссылками, скачиванием торрентов - проблемы в блокировщике рекламы AdBlock. #хорошегоДня!


Статистика раздачи
Размер:  412 MB   |    Зарегистрирован:  5 лет 8 месяцев   |    .torrent скачан:  47 раз   |   
Раздают:  1  
   
Загрузка...
 
Автор Сообщение

Umakiro

avatar Umakiro


Freddie Roach - The Soul Book/Mocha Motion!

Жанр: Soul Jazz
Страна-производитель диска: U.K.
Год издания диска: 1998
Издатель (лейбл): BGP Records
Номер по каталогу: CDBGPD 122
Страна: USA New York, NY [The Bronx]
Аудиокодек: FLAC (*.flac)
Тип рипа: tracks+.cue
Битрейт аудио: lossless
Продолжительность: 01:12:21
Источник (релизер): сеть
Наличие сканов в содержимом раздачи: да
Треклист:
01. Spacious [08:38]
02. Avatara [03:38]
03. Tenderly [06:18]
04. One Track Mind [05:48]
05. You've Got Your Troubles [04:36]
06. The Bees [06:40]
07. Samba De Orfeo [05:24]
08. (Good) Morning Time [05:35]
09. Money (That's What I Want) [04:25]
10. Stinky Fingers [04:01]
11. Here Cones The Mocha Men [05:19]
12. Johnnie's Comin' Home No More [05:17]
13. Warning Shot [06:34]
 
Exact Audio Copy V1.0 beta 1 from 15. November 2010

EAC extraction logfile from 17. August 2011, 23:23

Freddie Roach / The Soul Book--Mocha Motion

Used drive : TSSTcorpCDDVDW SH-S203N Adapter: 0 ID: 2

Read mode : SecureUtilize accurate stream : YesDefeat audio cache : YesMake use of C2 pointers : No

Read offset correction : 6Overread into Lead-In and Lead-Out : NoFill up missing offset samples with silence : YesDelete leading and trailing silent blocks : NoNull samples used in CRC calculations : YesUsed interface : Installed external ASPI interfaceGap handling : Appended to previous track

Used output format : User Defined EncoderSelected bitrate : 768 kBit/sQuality : HighAdd ID3 tag : NoCommand line compressor : C:\Program Files\Exact Audio Copy-NEW\Flac\flac.exeAdditional command line options : -8 -V -T "ARTIST=%a" -T "TITLE=%t" -T "ALBUM=%g" -T "DATE=%y" -T "TRACKNUMBER=%n" -T "TOTALTRACKS=%x" -T "GENRE=%m" -T "ALBUMARTIST=%v" -T "ALBUM ARTIST=%v" -T "COMMENT=EAC V1.01b1, Secure Mode, Test & Copy, AccurateRip, FL

TOC of the extracted CD

Track | Start | Length | Start sector | End sector --------------------------------------------------------- 1 | 0:00.00 | 8:38.12 | 0 | 38861 2 | 8:38.12 | 3:38.66 | 38862 | 55277 3 | 12:17.03 | 6:18.74 | 55278 | 83701 4 | 18:36.02 | 5:48.31 | 83702 | 109832 5 | 24:24.33 | 4:36.41 | 109833 | 130573 6 | 29:00.74 | 6:40.71 | 130574 | 160644 7 | 35:41.70 | 5:24.41 | 160645 | 184985 8 | 41:06.36 | 5:35.51 | 184986 | 210161 9 | 46:42.12 | 4:25.03 | 210162 | 230039 10 | 51:07.15 | 4:01.52 | 230040 | 248166 11 | 55:08.67 | 5:19.65 | 248167 | 272156 12 | 60:28.57 | 5:17.35 | 272157 | 295966 13 | 65:46.17 | 6:34.67 | 295967 | 325583

Track 1

Filename J:\New Rips\Freddie Roach - The Soul Book--Mocha Motion (1998) [FLAC]\01 - Spacious.wav

Pre-gap length 0:00:02.00

Peak level 99.9 % Extraction speed 5.6 X Track quality 100.0 % Test CRC 89A5B562 Copy CRC 89A5B562 Track not present in AccurateRip database Copy OK

Track 2

Filename J:\New Rips\Freddie Roach - The Soul Book--Mocha Motion (1998) [FLAC]\02 - Avatara.wav

Pre-gap length 0:00:04.07

Peak level 67.0 % Extraction speed 5.7 X Track quality 100.0 % Test CRC 3AE1E99C Copy CRC 3AE1E99C Track not present in AccurateRip database Copy OK

Track 3

Filename J:\New Rips\Freddie Roach - The Soul Book--Mocha Motion (1998) [FLAC]\03 - Tenderly.wav

Pre-gap length 0:00:03.56

Peak level 100.0 % Extraction speed 6.6 X Track quality 100.0 % Test CRC C6407D66 Copy CRC C6407D66 Track not present in AccurateRip database Copy OK

Track 4

Filename J:\New Rips\Freddie Roach - The Soul Book--Mocha Motion (1998) [FLAC]\04 - One Track Mind.wav

Pre-gap length 0:00:04.51

Peak level 100.0 % Extraction speed 7.2 X Track quality 100.0 % Test CRC 3C9BC8F6 Copy CRC 3C9BC8F6 Track not present in AccurateRip database Copy OK

Track 5

Filename J:\New Rips\Freddie Roach - The Soul Book--Mocha Motion (1998) [FLAC]\05 - You've Got Your Troubles.wav

Pre-gap length 0:00:04.08

Peak level 100.0 % Extraction speed 7.4 X Track quality 100.0 % Test CRC C47A14F0 Copy CRC C47A14F0 Track not present in AccurateRip database Copy OK

Track 6

Filename J:\New Rips\Freddie Roach - The Soul Book--Mocha Motion (1998) [FLAC]\06 - The Bees.wav

Pre-gap length 0:00:03.44

Peak level 100.0 % Extraction speed 8.1 X Track quality 100.0 % Test CRC EB0B24E0 Copy CRC EB0B24E0 Track not present in AccurateRip database Copy OK

Track 7

Filename J:\New Rips\Freddie Roach - The Soul Book--Mocha Motion (1998) [FLAC]\07 - Samba De Orfeo.wav

Pre-gap length 0:00:04.09

Peak level 100.0 % Extraction speed 8.4 X Track quality 100.0 % Test CRC 903C31B3 Copy CRC 903C31B3 Track not present in AccurateRip database Copy OK

Track 8

Filename J:\New Rips\Freddie Roach - The Soul Book--Mocha Motion (1998) [FLAC]\08 - Good Morning Time.wav

Pre-gap length 0:00:02.47

Peak level 79.5 % Extraction speed 7.4 X Track quality 99.9 % Test CRC 165A6D09 Copy CRC 165A6D09 Track not present in AccurateRip database Copy OK

Track 9

Filename J:\New Rips\Freddie Roach - The Soul Book--Mocha Motion (1998) [FLAC]\09 - Money.wav

Pre-gap length 0:00:03.00

Peak level 100.0 % Extraction speed 8.9 X Track quality 100.0 % Test CRC 32EB1D07 Copy CRC 32EB1D07 Track not present in AccurateRip database Copy OK

Track 10

Filename J:\New Rips\Freddie Roach - The Soul Book--Mocha Motion (1998) [FLAC]\10 - Stinky Fingers.wav

Pre-gap length 0:00:03.53

Peak level 71.9 % Extraction speed 9.0 X Track quality 100.0 % Test CRC E650EF3C Copy CRC E650EF3C Track not present in AccurateRip database Copy OK

Track 11

Filename J:\New Rips\Freddie Roach - The Soul Book--Mocha Motion (1998) [FLAC]\11 - Here Cones The Mocha Men.wav

Pre-gap length 0:00:04.31

Peak level 89.8 % Extraction speed 9.6 X Track quality 100.0 % Test CRC 0E01B8A5 Copy CRC 0E01B8A5 Track not present in AccurateRip database Copy OK

Track 12

Filename J:\New Rips\Freddie Roach - The Soul Book--Mocha Motion (1998) [FLAC]\12 - Johnnie's Comin' Home No More.wav

Pre-gap length 0:00:04.36

Peak level 69.3 % Extraction speed 8.2 X Track quality 99.9 % Test CRC BB3D96CE Copy CRC BB3D96CE Track not present in AccurateRip database Copy OK

Track 13

Filename J:\New Rips\Freddie Roach - The Soul Book--Mocha Motion (1998) [FLAC]\13 - Warning Shot.wav

Pre-gap length 0:00:04.30

Peak level 99.9 % Extraction speed 10.5 X Track quality 100.0 % Test CRC B2AF1E16 Copy CRC B2AF1E16 Track not present in AccurateRip database Copy OK

None of the tracks are present in the AccurateRip database

No errors occurred

End of status report

==== Log checksum 8E1C55D4452BCF942BE42096B34A3FC4DD49A300C48BEB5A25B42F4562197447 ====
 
REM GENRE "Jazz (Soul)"REM DATE 1998REM DISCID AF10F50DREM COMMENT "ExactAudioCopy v1.0b1"PERFORMER "Freddie Roach"TITLE "The Soul Book--Mocha Motion"FILE "01 - Spacious.flac" WAVE TRACK 01 AUDIO TITLE "Spacious" PERFORMER "Freddie Roach" INDEX 01 00:00:00 TRACK 02 AUDIO TITLE "Avatara" PERFORMER "Freddie Roach" INDEX 00 08:34:05FILE "02 - Avatara.flac" WAVE INDEX 01 00:00:00 TRACK 03 AUDIO TITLE "Tenderly" PERFORMER "Freddie Roach" INDEX 00 03:35:10FILE "03 - Tenderly.flac" WAVE INDEX 01 00:00:00 TRACK 04 AUDIO TITLE "One Track Mind" PERFORMER "Freddie Roach" INDEX 00 06:14:23FILE "04 - One Track Mind.flac" WAVE INDEX 01 00:00:00 TRACK 05 AUDIO TITLE "You've Got Your Troubles" PERFORMER "Freddie Roach" INDEX 00 05:44:23FILE "05 - You've Got Your Troubles.flac" WAVE INDEX 01 00:00:00 TRACK 06 AUDIO TITLE "The Bees" PERFORMER "Freddie Roach" INDEX 00 04:32:72FILE "06 - The Bees.flac" WAVE INDEX 01 00:00:00 TRACK 07 AUDIO TITLE "Samba De Orfeo" PERFORMER "Freddie Roach" INDEX 00 06:36:62FILE "07 - Samba De Orfeo.flac" WAVE INDEX 01 00:00:00 TRACK 08 AUDIO TITLE "Good Morning Time" PERFORMER "Freddie Roach" INDEX 00 05:21:69FILE "08 - Good Morning Time.flac" WAVE INDEX 01 00:00:00 TRACK 09 AUDIO TITLE "Money" PERFORMER "Freddie Roach" INDEX 00 05:32:51FILE "09 - Money.flac" WAVE INDEX 01 00:00:00 TRACK 10 AUDIO TITLE "Stinky Fingers" PERFORMER "Freddie Roach" INDEX 00 04:21:25FILE "10 - Stinky Fingers.flac" WAVE INDEX 01 00:00:00 TRACK 11 AUDIO TITLE "Here Cones The Mocha Men" PERFORMER "Freddie Roach" INDEX 00 03:57:21FILE "11 - Here Cones The Mocha Men.flac" WAVE INDEX 01 00:00:00 TRACK 12 AUDIO TITLE "Johnnie's Comin' Home No More" PERFORMER "Freddie Roach" INDEX 00 05:15:29FILE "12 - Johnnie's Comin' Home No More.flac" WAVE INDEX 01 00:00:00 TRACK 13 AUDIO TITLE "Warning Shot" PERFORMER "Freddie Roach" INDEX 00 05:13:05FILE "13 - Warning Shot.flac" WAVE INDEX 01 00:00:00
Organ ,Vocals - Freddie Roach
Saxophone - Edlin "Buddy" Terry
Guitar - Vinnie Corrao
Guitar (Clifton) - Skeeter Best
Drums - Ray Lucas
Drums - Jackie Mills
Drums - Eddie Gladden
Congas - Ralph A. Dorsey
Congas - King Errisson


Трекер:  [ 29-Янв-2012 15:07 ]

  

Скачать .torrent

Размер .torrent файла 18 KB


Размер: 412 MB
Хэш (hash) релиза: d64d900afb6aa8bfb9cf357ad55e11f0cf0397

Еще никто не оставлял запись к записи скачать торрент Freddie Roach - The Soul BookMocha Motion! - 1998, FLAC . Будь первым!

!Обратная связь