Скачать через торрент музыку Art Hodes Blue Five & Six feat. Wally Fawkes - Midnight Blue - 1989, FLAC бесплатно без регистрации torrent

Если у вас наблюдаются проблемы со скриншотами, переходом по ссылками, скачиванием торрентов - проблемы в блокировщике рекламы AdBlock. #хорошегоДня!


Статистика раздачи
Размер:  239 MB   |    Зарегистрирован:  5 лет 8 месяцев   |    .torrent скачан:  29 раз   |   
Раздают:  1  
   
Загрузка...
 
Автор Сообщение

Umakiro

avatar Umakiro


Art Hodes Blue Five & Six feat. Wally Fawkes / Midnight Blue

Жанр: Dixieland, Piano Jazz
Страна-производитель диска: USA
Год издания диска: 1989
Издатель (лейбл): Jazzology
Номер по каталогу: JCD172
Аудиокодек: FLAC (*.flac)
Тип рипа: tracks+.cue
Битрейт аудио: lossless
Продолжительность: 00:54:38
Источник (релизер): сеть
Наличие сканов в содержимом раздачи: да
Треклист:
01. I Want A Little Girl [07:55]
02. Willie The Weeper [03:58]
03. A Little Bit Of Yancey In London [03:49]
04. Trouble In Mind [03:46]
05. Canal Street Blues [03:53]
06. Squeeze Me [03:29]
07. Salty Dog [04:35]
08. Old Stack O'Lee Blues [03:52]
09. (I Had) A Date With An Angel [06:34]
10. Tin Roof Blues [03:49]
11. Wrap Your Troubles In Dreams [04:56]
12. Doctor Jazz [03:57]
 
Exact Audio Copy V1.0 beta 1 from 15. November 2010

EAC extraction logfile from 3. December 2011, 8:39

Art Hodes / Midnight Blue

Used drive : TSSTcorpCDDVDW SH-S203N Adapter: 0 ID: 2

Read mode : SecureUtilize accurate stream : YesDefeat audio cache : YesMake use of C2 pointers : No

Read offset correction : 6Overread into Lead-In and Lead-Out : NoFill up missing offset samples with silence : YesDelete leading and trailing silent blocks : NoNull samples used in CRC calculations : YesUsed interface : Installed external ASPI interfaceGap handling : Appended to previous track

Used output format : User Defined EncoderSelected bitrate : 768 kBit/sQuality : HighAdd ID3 tag : NoCommand line compressor : C:\Program Files\Exact Audio Copy-NEW\Flac\flac.exeAdditional command line options : -8 -V -T "ARTIST=%a" -T "TITLE=%t" -T "ALBUM=%g" -T "DATE=%y" -T "TRACKNUMBER=%n" -T "TOTALTRACKS=%x" -T "GENRE=%m" -T "ALBUMARTIST=%v" -T "ALBUM ARTIST=%v" -T "COMMENT=EAC V1.01b1, Secure Mode, Test & Copy, AccurateRip, FL

TOC of the extracted CD

Track | Start | Length | Start sector | End sector --------------------------------------------------------- 1 | 0:00.00 | 7:55.73 | 0 | 35697 2 | 7:55.73 | 3:58.20 | 35698 | 53567 3 | 11:54.18 | 3:49.47 | 53568 | 70789 4 | 15:43.65 | 3:46.15 | 70790 | 87754 5 | 19:30.05 | 3:53.53 | 87755 | 105282 6 | 23:23.58 | 3:29.60 | 105283 | 121017 7 | 26:53.43 | 4:35.05 | 121018 | 141647 8 | 31:28.48 | 3:52.12 | 141648 | 159059 9 | 35:20.60 | 6:34.43 | 159060 | 188652 10 | 41:55.28 | 3:49.37 | 188653 | 205864 11 | 45:44.65 | 4:56.10 | 205865 | 228074 12 | 50:41.00 | 3:57.68 | 228075 | 245917

Track 1

Filename J:\New Rips\Art Hodes - Midnight Blue (1989) [FLAC]\01 - I Want A Little Girl.wav

Pre-gap length 0:00:02.00

Peak level 100.0 % Extraction speed 4.9 X Track quality 100.0 % Test CRC C49AAC08 Copy CRC C49AAC08 Track not present in AccurateRip database Copy OK

Track 2

Filename J:\New Rips\Art Hodes - Midnight Blue (1989) [FLAC]\02 - Willie The Weeper.wav

Pre-gap length 0:00:05.28

Peak level 100.0 % Extraction speed 5.2 X Track quality 100.0 % Test CRC C2920770 Copy CRC C2920770 Track not present in AccurateRip database Copy OK

Track 3

Filename J:\New Rips\Art Hodes - Midnight Blue (1989) [FLAC]\03 - A Little Bit Of Yancey In London.wav

Pre-gap length 0:00:01.50

Peak level 94.0 % Extraction speed 5.6 X Track quality 100.0 % Test CRC 58C0CBD7 Copy CRC 58C0CBD7 Track not present in AccurateRip database Copy OK

Track 4

Filename J:\New Rips\Art Hodes - Midnight Blue (1989) [FLAC]\04 - Trouble In Mind.wav

Pre-gap length 0:00:01.42

Peak level 100.0 % Extraction speed 5.9 X Track quality 100.0 % Test CRC 44AB0F6A Copy CRC 44AB0F6A Track not present in AccurateRip database Copy OK

Track 5

Filename J:\New Rips\Art Hodes - Midnight Blue (1989) [FLAC]\05 - Canal Street Blues.wav

Pre-gap length 0:00:02.67

Peak level 89.8 % Extraction speed 6.2 X Track quality 100.0 % Test CRC 4D652503 Copy CRC 4D652503 Track not present in AccurateRip database Copy OK

Track 6

Filename J:\New Rips\Art Hodes - Midnight Blue (1989) [FLAC]\06 - Squeeze Me.wav

Pre-gap length 0:00:00.43

Peak level 74.4 % Extraction speed 6.4 X Track quality 100.0 % Test CRC 0FE6AC28 Copy CRC 0FE6AC28 Track not present in AccurateRip database Copy OK

Track 7

Filename J:\New Rips\Art Hodes - Midnight Blue (1989) [FLAC]\07 - Salty Dog.wav

Pre-gap length 0:00:01.08

Peak level 87.0 % Extraction speed 7.0 X Track quality 100.0 % Test CRC 0DA32D1D Copy CRC 0DA32D1D Track not present in AccurateRip database Copy OK

Track 8

Filename J:\New Rips\Art Hodes - Midnight Blue (1989) [FLAC]\08 - Old Stack O'Lee Blues.wav

Pre-gap length 0:00:02.73

Peak level 63.7 % Extraction speed 7.2 X Track quality 100.0 % Test CRC 334726AC Copy CRC 334726AC Track not present in AccurateRip database Copy OK

Track 9

Filename J:\New Rips\Art Hodes - Midnight Blue (1989) [FLAC]\09 - A Date With An Angel.wav

Pre-gap length 0:00:02.37

Peak level 94.4 % Extraction speed 8.0 X Track quality 100.0 % Test CRC E733F57A Copy CRC E733F57A Track not present in AccurateRip database Copy OK

Track 10

Filename J:\New Rips\Art Hodes - Midnight Blue (1989) [FLAC]\10 - Tin Roof Blues.wav

Pre-gap length 0:00:02.25

Peak level 87.6 % Extraction speed 7.8 X Track quality 100.0 % Test CRC 9FCE3179 Copy CRC 9FCE3179 Track not present in AccurateRip database Copy OK

Track 11

Filename J:\New Rips\Art Hodes - Midnight Blue (1989) [FLAC]\11 - Wrap Your Troubles In Dreams.wav

Pre-gap length 0:00:02.30

Peak level 100.0 % Extraction speed 8.4 X Track quality 100.0 % Test CRC 01870A31 Copy CRC 01870A31 Track not present in AccurateRip database Copy OK

Track 12

Filename J:\New Rips\Art Hodes - Midnight Blue (1989) [FLAC]\12 - Doctor Jazz.wav

Pre-gap length 0:00:02.60

Peak level 96.3 % Extraction speed 8.4 X Track quality 100.0 % Test CRC 656E15FF Copy CRC 656E15FF Track not present in AccurateRip database Copy OK

None of the tracks are present in the AccurateRip database

No errors occurred

End of status report

==== Log checksum E613363B12AC3E5FC44BFC28F43ACEA19A7019A52DE11839A4593071B1EB2CA0 ====
 
REM GENRE JazzREM DATE 1989REM DISCID 9B0CCE0CREM COMMENT "ExactAudioCopy v1.0b1"PERFORMER "Art Hodes"TITLE "Midnight Blue"FILE "01 - I Want A Little Girl.flac" WAVE TRACK 01 AUDIO TITLE "I Want A Little Girl" PERFORMER "Art Hodes" INDEX 01 00:00:00 TRACK 02 AUDIO TITLE "Willie The Weeper" PERFORMER "Art Hodes" INDEX 00 07:50:45FILE "02 - Willie The Weeper.flac" WAVE INDEX 01 00:00:00 TRACK 03 AUDIO TITLE "A Little Bit Of Yancey In London" PERFORMER "Art Hodes" INDEX 00 03:56:45FILE "03 - A Little Bit Of Yancey In London.flac" WAVE INDEX 01 00:00:00 TRACK 04 AUDIO TITLE "Trouble In Mind" PERFORMER "Art Hodes" INDEX 00 03:48:05FILE "04 - Trouble In Mind.flac" WAVE INDEX 01 00:00:00 TRACK 05 AUDIO TITLE "Canal Street Blues" PERFORMER "Art Hodes" INDEX 00 03:43:23FILE "05 - Canal Street Blues.flac" WAVE INDEX 01 00:00:00 TRACK 06 AUDIO TITLE "Squeeze Me" PERFORMER "Art Hodes" INDEX 00 03:53:10FILE "06 - Squeeze Me.flac" WAVE INDEX 01 00:00:00 TRACK 07 AUDIO TITLE "Salty Dog" PERFORMER "Art Hodes" INDEX 00 03:28:52FILE "07 - Salty Dog.flac" WAVE INDEX 01 00:00:00 TRACK 08 AUDIO TITLE "Old Stack O'Lee Blues" PERFORMER "Art Hodes" INDEX 00 04:32:07FILE "08 - Old Stack O'Lee Blues.flac" WAVE INDEX 01 00:00:00 TRACK 09 AUDIO TITLE "A Date With An Angel" PERFORMER "Art Hodes" INDEX 00 03:49:50FILE "09 - A Date With An Angel.flac" WAVE INDEX 01 00:00:00 TRACK 10 AUDIO TITLE "Tin Roof Blues" PERFORMER "Art Hodes" INDEX 00 06:32:18FILE "10 - Tin Roof Blues.flac" WAVE INDEX 01 00:00:00 TRACK 11 AUDIO TITLE "Wrap Your Troubles In Dreams" PERFORMER "Art Hodes" INDEX 00 03:47:07FILE "11 - Wrap Your Troubles In Dreams.flac" WAVE INDEX 01 00:00:00 TRACK 12 AUDIO TITLE "Doctor Jazz" PERFORMER "Art Hodes" INDEX 00 04:53:25FILE "12 - Doctor Jazz.flac" WAVE INDEX 01 00:00:00
Piano - Art Hodes
Vocals - Johnny Mars
Trumpet - Pat Halcox
Guitar - Fapy Lafertin
Drums - Stan Grieg
Drums - Dave Evans
Clarinet - Wally Fawkes
Bass - Andy Brown


Трекер:  [ 29-Янв-2012 15:06 ]

  

Скачать .torrent

Размер .torrent файла 20 KB


Размер: 239 MB
Хэш (hash) релиза: 07645bee6e84ff38e386508947fe22d9bce535ed

Еще никто не оставлял запись к записи скачать торрент Art Hodes Blue Five & Six feat. Wally Fawkes - Midnight Blue - 1989, FLAC . Будь первым!

!Обратная связь